.
Авторизация | Регистрация

bitok.xyz

» » Грабитель Виски / A Viszkis (2017) WEBRip [H.264] [MVO] [AD] торрент скачать бесплатно


    Грабитель Виски / A Viszkis (2017) WEBRip [H.264] [MVO] [AD] торрент скачать бесплатно

    Дата: 22-07-2018, 05:00 | .torrent скачали: 2

    Грабитель Виски / A Viszkis (2017) WEBRip [H.264] [MVO] [AD]Производство: Венгрия/Viszkis Film
    Жанр: Боевик, Драма, Криминал, Приключения
    Режиссер: Нимрод Антал

    Актеры
    Бенце Салаи, Золтан Шнайдер, Виктор Клем, Пирошка Мога, Дьёрдь Гажо, Ференц Борбицки, Имре Чуя

    Описание

    Детство у Атиллы было счастливым. Но когда умерла бабушка, мальчик попал в приемную семью, затем в интернат и в учреждение для малолетних преступников. Уже взрослым он решился на побег из тоталитарной Румынии в спокойную Венгрию. И теперь его, грабителя банков по прозвищу Виски, знает вся Венгрия. Перед тем, как идти на дело, он всегда пьёт виски.

    Продолжительность: 02: 07: 59
    Качество видео: WEBRip
    Перевод: Многоголосый закадровый, любительский (GreenРай Studio)
    Субтитры: отсутствуют
    Реклама: аудио, видео и текстовые вставки рекламы
    Видео: AVC/H.264, 720x304, ~800 Kbps
    Аудио: AC3, 2 ch, 192 Kbps

    General
    Unique ID : 150560222131514953523798991703266543486 (0x7144D811EF62740C8C897C04C09BC77E)
    Complete name : /media/win/TORRENT/UPLOAD_TORRENTS/The.Whisky.Robber.2017.P.WEB-DLRip.mkv
    Format : Matroska
    Format version : Version 4/Version 2
    File size : 911 MiB
    Duration : 2 h 7 min
    Overall bit rate : 995 kb/s
    Movie name : The.Whisky.Robber.2017.P.WEB-DLRip
    Encoded date : UTC 2018-07-21T07: 46: 16Z
    Writing application : HandBrake 1.1.1 2018061800
    Writing library : Lavf57.7.2
    Video
    ID : 1
    Format : AVC
    Format/Info : Advanced Video Codec
    Format profile : High@L4
    Format settings : CABAC/12 Ref Frames
    Format settings, CABAC : Yes
    Format settings, ReFrames : 12 frames
    Codec ID : V_MPEG4/ISO/AVC
    Duration : 2 h 7 min
    Bit rate : 800 kb/s
    Width : 720 pixels
    Height : 304 pixels
    Display aspect ratio : 2.35: 1
    Frame rate mode : Constant
    Frame rate : 23.976 (24000/1001) FPS
    Color space : YUV
    Chroma subsampling : 4: 2: 0
    Bit depth : 8 bits
    Scan type : Progressive
    Bits/(Pixel*Frame) : 0.152
    Stream size : 717 MiB (79%)
    Writing library : x264 core 152 r2854 e9a5903
    Encoding settings : cabac=1/ref=12/deblock=1: 0: 0/analyse=0x3: 0x113/me=umh/subme=9/psy=1/psy_rd=1, 00: 0, 00/mixed_ref=1/me_range=24/chroma_me=1/trellis=1/8x8dct=1/cqm=0/deadzone=21, 11/fast_pskip=1/chroma_qp_offset=-2/threads=6/lookahead_threads=1/sliced_threads=0/nr=0/decimate=1/interlaced=0/bluray_compat=0/constrained_intra=0/bframes=6/b_pyramid=2/b_adapt=2/b_bias=0/direct=1/weightb=1/open_gop=0/weightp=1/keyint=240/keyint_min=24/scenecut=40/intra_refresh=0/rc_lookahead=30/rc=2pass/mbtree=1/bitrate=800/ratetol=1, 0/qcomp=0, 60/qpmin=0/qpmax=69/qpstep=4/cplxblur=20, 0/qblur=0, 5/vbv_maxrate=25000/vbv_bufsize=31250/nal_hrd=none/filler=0/ip_ratio=1, 40/aq=1: 1, 00
    Default : Yes
    Forced : No
    Color range : Limited
    Color primaries : BT.601 NTSC
    Transfer characteristics : BT.709
    Matrix coefficients : BT.601
    Audio
    ID : 2
    Format : AC-3
    Format/Info : Audio Coding 3
    Codec ID : A_AC3
    Duration : 2 h 7 min
    Bit rate mode : Constant
    Bit rate : 192 kb/s
    Channel(s) : 2 channels
    Channel positions : Front: L R
    Sampling rate : 48.0 kHz
    Frame rate : 31.250 FPS (1536 SPF)
    Bit depth : 16 bits
    Compression mode : Lossy
    Stream size : 176 MiB (19%)
    Title : Stereo
    Service kind : Complete Main
    Default : Yes
    Forced : No

    Скриншоты для ознакомления



    Все одноименные релизы в Клубе
    Время раздачи: с 09: 00 до 21: 00 до пяти скачавших (до появления первых 3-5 скачавших)


    Грабитель Виски/A Viszkis (2017) WEBRip [H.264] [MVO] [AD]
    Рейтинг →
     (голосов: 1, оценка 5/5, голосовать можно 1 раз )

    Другие торренты по теме:

  • Джентльмен грабитель / Electric Slide (2014) WEB-DLRip [Line] скачать через торрент бесплатно
  • Джентльмен грабитель / Electric Slide (2014) WEB-DL [H.264 / 720p-LQ] [Line] скачать через торрент бесплатно
  • Джентльмен грабитель / Electric Slide (2014) WEB-DL [H.264 / 1080p-LQ] [Line] скачать через торрент бесплатно
  • Эд Макбейн | Грабитель (2017) [MP3]


    • Комментарии (0):

      Информация

      Информация

        Посетители, находящиеся в группе Гости, не могут оставлять комментарии в данной новости.

        ↓ Меню




        ↓ Опрос

        Вы добавили сайт в закладки?
        Да
        Нет


        Популярное