.
Авторизация | Регистрация

bitok.xyz

» » Добейся успеха / Bring It On (2000) DVB [H.264 / 1080i-LQ] [AD] торрент скачать бесплатно


    Добейся успеха / Bring It On (2000) DVB [H.264 / 1080i-LQ] [AD] торрент скачать бесплатно

    Дата: 22-07-2018, 05:00 | .torrent скачали: 0

    Добейся успеха / Bring It On (2000) DVB [H.264 / 1080i-LQ] [AD]Производство: США/Beacon Communications, Beacon Pictures
    Жанр: Мелодрама, Комедия, Спорт
    Режиссер: Пейтон Рид
    Продюсер: Марк Абрахам, Томас А. Блисс, Джессика Бендинджер

    Актеры
    Кирстен Данст, Элиза Душку, Джесси Брэдфорд, Гэбриэл Юнион, Клер Крамер, Николь Бильдербак, Цианина Джоелсон, Рини Белл, Натан Уэст, Хантли Риттер

    Описание

    Между девчонками из групп поддержки спортивных команд разгорается нешуточная борьба за звание лучшей. В ход идут самые неожиданные приёмы и ухищрения. Но чтобы стать первой, команде нужно победить в национальном чемпионате, а этого смогут добиться только самые красивые, талантливые, задорные и сексуальные.

    Возраст: 12+ (зрителям, достигшим 12 лет)
    Рейтинг MPAA: PG-13 (детям до 13 лет просмотр нежелателен)
    Продолжительность: 01: 30: 59
    Качество видео: DVB 1080i
    Перевод: Многоголосый закадровый, профессиональный
    Субтитры: отсутствуют
    Реклама: присутствуют видео вставки анонсов передач
    Видео: AVC/H.264, 1920x1080, ~6729 Kbps
    Аудио: MP2, 2 ch, 192 Kbps

    Общее
    Идентификатор : 16 (0x10)
    Полное имя : Bring It On_2000_HD.ts
    Формат : MPEG-TS
    Размер файла : 4, 63 Гбайт
    Продолжительность : 1 ч. 30 м.
    Режим общего битрейта : Переменный
    Общий поток : 7282 Кбит/сек
    Видео
    Идентификатор : 1502 (0x5DE)
    Идентификатор меню : 502 (0x1F6)
    Формат : AVC
    Формат/Информация : Advanced Video Codec
    Профиль формата : High@L4
    Настройки формата : CABAC/3 Ref Frames
    Параметр CABAC формата : Да
    Параметр RefFrames формата : 3 кадра
    Параметр GOP формата : M=4, N=32
    Идентификатор кодека : 27
    Продолжительность : 1 ч. 30 м.
    Битрейт : 6729 Кбит/сек
    Ширина : 1920 пикселей
    Высота : 1080 пикселей
    Соотношение сторон : 16: 9
    Частота кадров : 25, 000 кадров/сек
    Стандарт вещания : PAL
    Цветовое пространство : YUV
    Субдискретизация насыщенности : 4: 2: 0
    Битовая глубина : 8 бит
    Тип развёртки : Чересстрочная
    Метод сохранения типа развёртки : Раздельные поля
    Порядок развёртки : Верхнее поле первое
    Бит/(Пиксели*Кадры) : 0.130
    Размер потока : 4, 27 Гбайт (92%)
    Цветовой диапазон : Limited
    Основные цвета : BT.709
    Характеристики трансфера : BT.709
    Коэффициенты матрицы : BT.709
    Аудио
    Идентификатор : 2502 (0x9C6)
    Идентификатор меню : 502 (0x1F6)
    Формат : MPEG Audio
    Версия формата : Version 1
    Профиль формата : Layer 2
    Идентификатор кодека : 4
    Продолжительность : 1 ч. 30 м.
    Вид битрейта : Постоянный
    Битрейт : 192 Кбит/сек
    Каналы : 2 канала
    Частота : 48, 0 КГц
    Метод сжатия : С потерями
    Задержка видео : 27 мс.
    Размер потока : 125 Мбайт (3%)
    Язык : std
    Язык, дополнительно : Clean effects

    Скриншоты для ознакомления



    Все одноименные релизы в Клубе
    Время раздачи: Сб-Вс с 09: 00 до 23: 30 (до появления первых 3-5 скачавших)


    Добейся успеха/Bring It On (2000) DVB [H.264/1080i-LQ] [AD]
    Рейтинг →
     (голосов: 1, оценка 3/5, голосовать можно 1 раз )

    Другие торренты по теме:

  • Добейся успеха / Bring It On (2000) HDTVRip [AVI|320x178]


    • Комментарии (0):

      Информация

      Информация

        Посетители, находящиеся в группе Гости, не могут оставлять комментарии в данной новости.

        ↓ Меню




        ↓ Опрос

        Вы добавили сайт в закладки?
        Да
        Нет


        Популярное