.
Авторизация | Регистрация

bitok.xyz

» » Мактуб / Maktub (2017) WEBRip [MVO] [AD] торрент скачать бесплатно


    Мактуб / Maktub (2017) WEBRip [MVO] [AD] торрент скачать бесплатно

    Дата: 22-07-2018, 05:00 | .torrent скачали: 2

    Мактуб / Maktub (2017) WEBRip [MVO] [AD]Производство: Израиль/Firma Films
    Жанр: Драма, Комедия
    Режиссер: Одед Раз

    Актеры
    Гай Амир, Ханан Савьон, Гал Амитай, Чэнь Амсалем, Ами Аниар, Эдна Блилиус, Абрахам Селектар, Арье Шернер, Ицик Коэн, Анастасия Фейн

    Описание

    Рэкетиры Стив и Чума, единственные выжившие после теракта в иерусалимском ресторане, превращаются в ангелов...

    Релиз от: GreenРай Studio
    Продолжительность: 01: 45: 15
    Качество видео: WEBRip
    Перевод: Многоголосый закадровый, любительский (GreenРай Studio)
    Субтитры: Английские (неотключаемые)
    Реклама: аудио, видео и текстовые вставки рекламы
    Видео: Xvid, 720x404, ~1311 Kbps
    Аудио: AC3, 2 ch, 192 Kbps

    General
    Complete name : /media/win/TORRENT/UPLOAD_TORRENTS/Maktub.2017.P.WEBRip.avi
    Format : AVI
    Format/Info : Audio Video Interleave
    Format profile : OpenDML
    File size : 1.12 GiB
    Duration : 1 h 45 min
    Overall bit rate : 1 517 kb/s
    Writing application : Lavf57.83.100
    Video
    ID : 0
    Format : MPEG-4 Visual
    Format profile : Advanced Simple@L5
    Format settings : BVOP2
    Format settings, BVOP : 2
    Format settings, QPel : No
    Format settings, GMC : No warppoints
    Format settings, Matrix : Default (H.263)
    Muxing mode : Packed bitstream
    Codec ID : XVID
    Codec ID/Hint : XviD
    Duration : 1 h 45 min
    Bit rate : 1 311 kb/s
    Width : 720 pixels
    Height : 404 pixels
    Display aspect ratio : 16: 9
    Frame rate : 23.976 (24000/1001) FPS
    Color space : YUV
    Chroma subsampling : 4: 2: 0
    Bit depth : 8 bits
    Scan type : Progressive
    Compression mode : Lossy
    Bits/(Pixel*Frame) : 0.188
    Stream size : 987 MiB (86%)
    Writing library : XviD 67
    Audio
    ID : 1
    Format : AC-3
    Format/Info : Audio Coding 3
    Codec ID : 2000
    Duration : 1 h 45 min
    Bit rate mode : Constant
    Bit rate : 192 kb/s
    Channel(s) : 2 channels
    Channel positions : Front: L R
    Sampling rate : 48.0 kHz
    Frame rate : 31.250 FPS (1536 SPF)
    Bit depth : 16 bits
    Compression mode : Lossy
    Stream size : 145 MiB (13%)
    Alignment : Aligned on interleaves
    Interleave, duration : 32 ms (0.77 video frame)
    Service kind : Complete Main

    Скриншоты для ознакомления



    Все одноименные релизы в Клубе
    Время раздачи: с 09: 00 до 21: 00 до пяти скачавших (до появления первых 3-5 скачавших)


    Мактуб/Maktub (2017) WEBRip [MVO] [AD]
    Рейтинг →
     (голосов: 1, оценка 5/5, голосовать можно 1 раз )

    Другие торренты по теме:

  • Мактуб / Maktub (2011) DVDRip


    • Комментарии (0):

      Информация

      Информация

        Посетители, находящиеся в группе Гости, не могут оставлять комментарии в данной новости.

        ↓ Меню




        ↓ Опрос

        Вы добавили сайт в закладки?
        Да
        Нет


        Популярное