.
Авторизация | Регистрация

bitok.xyz

» » Горная лихорадка / Mountain Fever (2017) WEB-DLRip [H.264 / 720p-LQ] [MVO] [AD] торрент скачать бесплатно


    Горная лихорадка / Mountain Fever (2017) WEB-DLRip [H.264 / 720p-LQ] [MVO] [AD] торрент скачать бесплатно

    Дата: 2-11-2018, 05:00 | .torrent скачали: 2

    Горная лихорадка / Mountain Fever (2017) WEB-DLRip [H.264 / 720p-LQ] [MVO] [AD]Производство: Франция, Великобритания
    Жанр: Драма, Триллер
    Режиссер: Хендрик Фаллер

    Актеры
    Жюльен Каплан, Аня Корзун, Жюльен Мишель, Том Миллер

    Описание

    Заложник в собственном доме, некомпетентный англичанин вынужден объединиться со своим похитителем, чтобы отбить выживших после смертельной эпидемии гриппа.

    Дата мировой премьеры: 26 августа 2017
    Продолжительность: 01: 17: 44
    Качество видео: WEB-DLRip
    Перевод: Многоголосый закадровый (Синема УС )
    Субтитры: Отсутствуют
    Реклама: Присутствуют вставки текстовой рекламы
    Видео: AVC/H.264, 1280x544, ~2780 Kbps
    Аудио: AC3, 2 ch, 192 Kbps

    Общее
    Уникальный идентификатор : 212118436816635841967482016515510139595 (0x9F9486614CBF88902B826D8010367ACB)
    Полное имя : C: UsersUserDesktopNNMClubMountain.Fever.2O17.P.WEB-DLRip.72Op (1).mkv
    Формат : Matroska
    Версия формата : Version 2
    Размер файла : 1, 59 Гбайт
    Продолжительность : 1 ч. 17 м.
    Общий поток : 2923 Кбит/сек
    Дата кодирования : UTC 2018-10-31 20: 33: 40/UTC 2018-10-31 20: 33: 40
    Программа кодирования : Lavf54.63.104
    Библиотека кодирования : Lavf54.63.104
    Видео
    Идентификатор : 1
    Формат : AVC
    Формат/Информация : Advanced Video Codec
    Профиль формата : Main@L3.1
    Настройки формата : CABAC/1 Ref Frames
    Параметр CABAC формата : Да
    Параметр RefFrames формата : 1 кадр
    Идентификатор кодека : V_MPEG4/ISO/AVC
    Продолжительность : 1 ч. 17 м.
    Битрейт : 2780 Кбит/сек
    Ширина : 1280 пикселей
    Высота : 544 пикселя
    Соотношение сторон : 2, 35: 1
    Режим частоты кадров : Постоянный
    Частота кадров : 23, 976 (24000/1001) кадра/сек
    Цветовое пространство : YUV
    Субдискретизация насыщенности : 4: 2: 0
    Битовая глубина : 8 бит
    Тип развёртки : Прогрессивная
    Бит/(Пиксели*Кадры) : 0.167
    Размер потока : 1, 45 Гбайт (91%)
    Библиотека кодирования : x264 core 129
    Настройки программы : cabac=1/ref=1/deblock=1: 0: 0/analyse=0x1: 0x131/me=dia/subme=2/psy=1/psy_rd=1.00: 0.00/mixed_ref=0/me_range=16/chroma_me=1/trellis=0/8x8dct=0/cqm=0/deadzone=21, 11/fast_pskip=1/chroma_qp_offset=0/threads=8/lookahead_threads=1/sliced_threads=0/nr=0/decimate=1/interlaced=0/bluray_compat=0/constrained_intra=0/bframes=0/weightp=2/keyint=250/keyint_min=25/scenecut=40/intra_refresh=0/rc_lookahead=40/rc=abr/mbtree=1/bitrate=2780/ratetol=1.0/qcomp=0.60/qpmin=10/qpmax=51/qpstep=4/ip_ratio=1.41/aq=1: 1.00
    Default : Да
    Forced : Нет
    Аудио
    Идентификатор : 2
    Формат : AC-3
    Формат/Информация : Audio Coding 3
    Коммерческое название : Dolby Digital
    Идентификатор кодека : A_AC3
    Продолжительность : 1 ч. 17 м.
    Вид битрейта : Постоянный
    Битрейт : 192 Кбит/сек
    Каналы : 2 канала
    Channel layout : L R
    Частота : 48, 0 КГц
    Частота кадров : 31, 250 кадров/сек (1536 SPF)
    Битовая глубина : 16 бит
    Метод сжатия : С потерями
    Размер потока : 107 Мбайт (7%)
    ServiceKind/String : Complete Main
    Default : Да
    Forced : Нет

    Скриншоты для ознакомления



    Все одноименные релизы в Клубе
    Время раздачи: 24/7 (до появления первых 3-5 скачавших)


    Горная лихорадка/Mountain Fever (2017) WEB-DLRip [H.264/720p-LQ] [MVO] [AD]
    Рейтинг →
     (голосов: 1, оценка 3/5, голосовать можно 1 раз )

    Другие торренты по теме:

  • Горная бригада (2014) HDTVRip [720p-LQ] [Серии: 1-12 из 12] скачать через торрент бесплатно
  • Mountain Trap 2: Under The Cloak Of Fear / Горная Ловушка 2: Под Покровом Страха (2016) [Ru] (1.0) Unofficial
  • Горная болезнь (2019) WEBRip [H.264] (сезон 1, серии 1-4 из 4)
  • Горная болезнь (2019) WEBRip [H.264 / 1080p-LQ] (сезон 1, серии 1-4 из 4)
  • Горная болезнь (2019) WEBRip (сезон 1, серии 1-4 из 4)


    • Комментарии (0):

      Информация

      Информация

        Посетители, находящиеся в группе Гости, не могут оставлять комментарии в данной новости.

        ↓ Меню




        ↓ Опрос

        Вы добавили сайт в закладки?
        Да
        Нет


        Популярное