.
Авторизация | Регистрация

bitok.xyz

» » Песня года (лучшее 1983 - 1991) - Видеоколлекция от ALEXnROCK часть 1 WEBRip торрент скачать бесплатно


    Песня года (лучшее 1983 - 1991) - Видеоколлекция от ALEXnROCK часть 1 WEBRip торрент скачать бесплатно

    Дата: 16-11-2018, 05:00 | .torrent скачали: 7

    Песня года (лучшее 1983 - 1991) - Видеоколлекция от ALEXnROCK часть 1 WEBRipЖанр: Pop
    Год выпуска: 2018

    Описание

    В сборник вошли самые хитовые песни с выступлений Песня года, периода 1983 по 1991 г. В то время бездарям путь на эстраду был закрыт. Самые сильная поп музыка создавалась именно тогда. Это классика и достояние нашей великой Родины. Все видео прошло многочасовую обработку, звук CD. Обложка и блин для диска в раздаче. Да пребудет с нами качественная музыка!. Все лучшее для вас. ALEXnROCK
    Продолжительность: 02: 39: 54
    Качество: WEBRip
    Видео : XviD, 720x528, 720x536, 3500 Kbps
    Аудио : MP3, 48 KHz, 2 ch, 320 Kbps
    Треклист:
    000 Вступление
    001 София Ротару - Только этого мало
    002 Форум - Ревность
    003 Земляне -Трава у дома
    004 Филипп Киркоров - Ты
    005 Олег Газманов - Эскадрон
    006 Александр Серов - Мадонна
    007 Алла Пугачева - Миллион аллых роз
    008 Вячеслав Добрынин - Колдовское озеро
    009 Женя Белоусов - Алешка
    010 Игорь Саруханов - Дорогие мои старики
    011 Лариса Долина - Кот Бегемот
    012 Игорь Тальков - Бывший подъесаул
    013 София Ротару - Была не была
    014 Дмитрий Маликов - До завтра
    015 Санкт-Петербург - Очарована, околдована
    016 Алексей Глызин - Пепел любви
    017 Кар мэн - Парень из Африки
    018 Иосиф Кобзон - Памяти друзей
    019 Любэ - Атас
    020 Алла Пугачёва и Владимир Кузьмин - Две звезды
    021 Александр Малинин - Забава
    022 Наташа Королева - Желтые тюльпаны
    023 Браво - Вася
    024 Лайма Вайкуле - Вернисаж
    025 Электроклуб - Ты замуж за него не выходи
    026 Юрий Лоза - Плот
    027 Женя Белоусов - Золотые купола
    028 Алла Пугачева - Без меня
    029 Веселые ребята - Безнадега
    030 Александр Барыкин - Букет
    031 София Ротару - Караван любви
    032 Ялла - Чайхана
    033 Александр Кальянов - За кордон
    034 Андрей Державин - Не плачь Алиса
    035 Владимир Маркин - Сиреневый туман
    036 Татьяна Овсиенко - Запомни меня
    037 Александр Серов - Музыка венчальная

    Общее
    Полное имя : Песня года 83-91 - Лучшее от ALEXnROCK avi 100 Вступление.avi
    Формат : AVI
    Формат/Информация : Audio Video Interleave
    Размер файла : 26, 7 Мбайт
    Продолжительность : 58 с. 759 мс.
    Общий поток : 3813 Кбит/сек
    Программа кодирования : VirtualDubMod 1.5.10.2 (build 2540/release)
    Библиотека кодирования : VirtualDubMod build 2540/release
    Видео
    Идентификатор : 0
    Формат : MPEG-4 Visual
    Профиль формата : Advanced Simple@L5
    Настройки формата : BVOP2
    Параметр BVOP формата : 2
    Параметр QPel формата : Нет
    Параметр GMC формата : Без точки перехода
    Параметр матрицы формата : Default (H.263)
    Режим смешивания : Сжатый битовый поток
    Идентификатор кодека : XVID
    Идентификатор кодека/Подсказка : XviD
    Продолжительность : 58 с. 759 мс.
    Битрейт : 3480 Кбит/сек
    Ширина : 720 пикселей
    Высота : 408 пикселей
    Соотношение сторон : 16: 9
    Частота кадров : 29, 970 (30000/1001) кадров/сек
    Цветовое пространство : YUV
    Субдискретизация насыщенности : 4: 2: 0
    Битовая глубина : 8 бит
    Тип развёртки : Прогрессивная
    Метод сжатия : С потерями
    Бит/(Пиксели*Кадры) : 0.395
    Размер потока : 24, 4 Мбайт (91%)
    Библиотека кодирования : XviD 1.2.1 (UTC 2008-12-04)
    Аудио
    Идентификатор : 1
    Формат : MPEG Audio
    Версия формата : Version 1
    Профиль формата : Layer 3
    Идентификатор кодека : 55
    Идентификатор кодека/Подсказка : MP3
    Продолжительность : 58 с. 704 мс.
    Вид битрейта : Постоянный
    Битрейт : 320 Кбит/сек
    Каналы : 2 канала
    Частота : 48, 0 КГц
    Метод сжатия : С потерями
    Размер потока : 2, 24 Мбайт (8%)
    Выравнивание : Соединение по промежуткам
    Продолжительность промежутка : 34 мс. (1, 01 видеокадр)
    Время предзагрузки промежутка : 504 мс.
    Библиотека кодирования : LAME3.99r
    Настройки программы : -m s -V 4 -q 2 -lowpass 20.5
    Общее
    Полное имя : E: ФильмыклипыПесня годаПесня года 83-91 - Лучшее от ALEXnROCK avi 101 София Ротару - Только этого мало.avi
    Формат : AVI
    Формат/Информация : Audio Video Interleave
    Размер файла : 120 Мбайт
    Продолжительность : 4 м. 26 с.
    Общий поток : 3785 Кбит/сек
    Программа кодирования : VirtualDubMod 1.5.10.2 (build 2540/release)
    Библиотека кодирования : VirtualDubMod build 2540/release
    Видео
    Идентификатор : 0
    Формат : MPEG-4 Visual
    Профиль формата : Advanced Simple@L5
    Настройки формата : BVOP2
    Параметр BVOP формата : 2
    Параметр QPel формата : Нет
    Параметр GMC формата : Без точки перехода
    Параметр матрицы формата : Default (H.263)
    Режим смешивания : Сжатый битовый поток
    Идентификатор кодека : XVID
    Идентификатор кодека/Подсказка : XviD
    Продолжительность : 4 м. 26 с.
    Битрейт : 3456 Кбит/сек
    Ширина : 720 пикселей
    Высота : 536 пикселей
    Соотношение сторон : 4: 3
    Частота кадров : 25, 000 кадров/сек
    Цветовое пространство : YUV
    Субдискретизация насыщенности : 4: 2: 0
    Битовая глубина : 8 бит
    Тип развёртки : Прогрессивная
    Метод сжатия : С потерями
    Бит/(Пиксели*Кадры) : 0.358
    Размер потока : 110 Мбайт (91%)
    Библиотека кодирования : XviD 1.2.1 (UTC 2008-12-04)
    Аудио
    Идентификатор : 1
    Формат : MPEG Audio
    Версия формата : Version 1
    Профиль формата : Layer 3
    Идентификатор кодека : 55
    Идентификатор кодека/Подсказка : MP3
    Продолжительность : 4 м. 26 с.
    Вид битрейта : Постоянный
    Битрейт : 320 Кбит/сек
    Каналы : 2 канала
    Частота : 48, 0 КГц
    Метод сжатия : С потерями
    Размер потока : 10, 2 Мбайт (8%)
    Выравнивание : Соединение по промежуткам
    Продолжительность промежутка : 40 мс. (1, 00 видеокадр)
    Время предзагрузки промежутка : 504 мс.
    Библиотека кодирования : LAME3.99r
    Настройки программы : -m s -V 4 -q 2 -lowpass 20.5
    Общее
    Полное имя : E: ФильмыклипыПесня годаПесня года 83-91 - Лучшее от ALEXnROCK avi 102 Форум - Ревность.avi
    Формат : AVI
    Формат/Информация : Audio Video Interleave
    Размер файла : 120 Мбайт
    Продолжительность : 4 м. 22 с.
    Общий поток : 3830 Кбит/сек
    Программа кодирования : VirtualDubMod 1.5.10.2 (build 2540/release)
    Библиотека кодирования : VirtualDubMod build 2540/release
    Видео
    Идентификатор : 0
    Формат : MPEG-4 Visual
    Профиль формата : Advanced Simple@L5
    Настройки формата : BVOP1
    Параметр BVOP формата : 1
    Параметр QPel формата : Нет
    Параметр GMC формата : Без точки перехода
    Параметр матрицы формата : Default (H.263)
    Режим смешивания : Сжатый битовый поток
    Идентификатор кодека : XVID
    Идентификатор кодека/Подсказка : XviD
    Продолжительность : 4 м. 22 с.
    Битрейт : 3500 Кбит/сек
    Ширина : 720 пикселей
    Высота : 536 пикселей
    Соотношение сторон : 4: 3
    Частота кадров : 25, 000 кадров/сек
    Цветовое пространство : YUV
    Субдискретизация насыщенности : 4: 2: 0
    Битовая глубина : 8 бит
    Тип развёртки : Прогрессивная
    Метод сжатия : С потерями
    Бит/(Пиксели*Кадры) : 0.363
    Размер потока : 109 Мбайт (91%)
    Библиотека кодирования : XviD 1.2.1 (UTC 2008-12-04)
    Аудио
    Идентификатор : 1
    Формат : MPEG Audio
    Версия формата : Version 1
    Профиль формата : Layer 3
    Идентификатор кодека : 55
    Идентификатор кодека/Подсказка : MP3
    Продолжительность : 4 м. 22 с.
    Вид битрейта : Постоянный
    Битрейт : 320 Кбит/сек
    Каналы : 2 канала
    Частота : 48, 0 КГц
    Метод сжатия : С потерями
    Размер потока : 10, 0 Мбайт (8%)
    Выравнивание : Соединение по промежуткам
    Продолжительность промежутка : 40 мс. (1, 00 видеокадр)
    Время предзагрузки промежутка : 504 мс.
    Библиотека кодирования : LAME3.99r
    Настройки программы : -m s -V 4 -q 2 -lowpass 20.5
    Общее
    Полное имя : E: ФильмыклипыПесня годаПесня года 83-91 - Лучшее от ALEXnROCK avi 103 Земляне -Трава у дома.avi
    Формат : AVI
    Формат/Информация : Audio Video Interleave
    Размер файла : 128 Мбайт
    Продолжительность : 4 м. 39 с.
    Общий поток : 3830 Кбит/сек
    Программа кодирования : VirtualDubMod 1.5.10.2 (build 2540/release)
    Библиотека кодирования : VirtualDubMod build 2540/release
    Видео
    Идентификатор : 0
    Формат : MPEG-4 Visual
    Профиль формата : Advanced Simple@L5
    Настройки формата : BVOP2
    Параметр BVOP формата : 2
    Параметр QPel формата : Нет
    Параметр GMC формата : Без точки перехода
    Параметр матрицы формата : Default (H.263)
    Режим смешивания : Сжатый битовый поток
    Идентификатор кодека : XVID
    Идентификатор кодека/Подсказка : XviD
    Продолжительность : 4 м. 39 с.
    Битрейт : 3500 Кбит/сек
    Ширина : 720 пикселей
    Высота : 536 пикселей
    Соотношение сторон : 4: 3
    Частота кадров : 25, 000 кадров/сек
    Цветовое пространство : YUV
    Субдискретизация насыщенности : 4: 2: 0
    Битовая глубина : 8 бит
    Тип развёртки : Прогрессивная
    Метод сжатия : С потерями
    Бит/(Пиксели*Кадры) : 0.363
    Размер потока : 117 Мбайт (91%)
    Библиотека кодирования : XviD 1.2.1 (UTC 2008-12-04)
    Аудио
    Идентификатор : 1
    Формат : MPEG Audio
    Версия формата : Version 1
    Профиль формата : Layer 3
    Идентификатор кодека : 55
    Идентификатор кодека/Подсказка : MP3
    Продолжительность : 4 м. 39 с.
    Вид битрейта : Постоянный
    Битрейт : 320 Кбит/сек
    Каналы : 2 канала
    Частота : 48, 0 КГц
    Метод сжатия : С потерями
    Размер потока : 10, 7 Мбайт (8%)
    Выравнивание : Соединение по промежуткам
    Продолжительность промежутка : 40 мс. (1, 00 видеокадр)
    Время предзагрузки промежутка : 504 мс.
    Библиотека кодирования : LAME3.99r
    Настройки программы : -m s -V 4 -q 2 -lowpass 20.5
    Общее
    Полное имя : E: ФильмыклипыПесня годаПесня года 83-91 - Лучшее от ALEXnROCK avi 104 Филипп Киркоров - Ты.avi
    Формат : AVI
    Формат/Информация : Audio Video Interleave
    Размер файла : 143 Мбайт
    Продолжительность : 5 м. 14 с.
    Общий поток : 3830 Кбит/сек
    Программа кодирования : VirtualDubMod 1.5.10.2 (build 2540/release)
    Библиотека кодирования : VirtualDubMod build 2540/release
    Видео
    Идентификатор : 0
    Формат : MPEG-4 Visual
    Профиль формата : Advanced Simple@L5
    Настройки формата : BVOP2
    Параметр BVOP формата : 2
    Параметр QPel формата : Нет
    Параметр GMC формата : Без точки перехода
    Параметр матрицы формата : Default (H.263)
    Режим смешивания : Сжатый битовый поток
    Идентификатор кодека : XVID
    Идентификатор кодека/Подсказка : XviD
    Продолжительность : 5 м. 14 с.
    Битрейт : 3500 Кбит/сек
    Ширина : 720 пикселей
    Высота : 536 пикселей
    Соотношение сторон : 4: 3
    Частота кадров : 25, 000 кадров/сек
    Цветовое пространство : YUV
    Субдискретизация насыщенности : 4: 2: 0
    Битовая глубина : 8 бит
    Тип развёртки : Прогрессивная
    Метод сжатия : С потерями
    Бит/(Пиксели*Кадры) : 0.363
    Размер потока : 131 Мбайт (91%)
    Библиотека кодирования : XviD 1.2.1 (UTC 2008-12-04)
    Аудио
    Идентификатор : 1
    Формат : MPEG Audio
    Версия формата : Version 1
    Профиль формата : Layer 3
    Идентификатор кодека : 55
    Идентификатор кодека/Подсказка : MP3
    Продолжительность : 5 м. 13 с.
    Вид битрейта : Постоянный
    Битрейт : 320 Кбит/сек
    Каналы : 2 канала
    Частота : 48, 0 КГц
    Метод сжатия : С потерями
    Размер потока : 12, 0 Мбайт (8%)
    Выравнивание : Соединение по промежуткам
    Продолжительность промежутка : 40 мс. (1, 00 видеокадр)
    Время предзагрузки промежутка : 504 мс.
    Библиотека кодирования : LAME3.99r
    Настройки программы : -m s -V 4 -q 2 -lowpass 20.5
    Общее
    Полное имя : E: ФильмыклипыПесня годаПесня года 83-91 - Лучшее от ALEXnROCK avi 105 Олег Газманов - Эскадрон.avi
    Формат : AVI
    Формат/Информация : Audio Video Interleave
    Размер файла : 83, 7 Мбайт
    Продолжительность : 3 м. 3 с.
    Общий поток : 3830 Кбит/сек
    Программа кодирования : VirtualDubMod 1.5.10.2 (build 2540/release)
    Библиотека кодирования : VirtualDubMod build 2540/release
    Видео
    Идентификатор : 0
    Формат : MPEG-4 Visual
    Профиль формата : Advanced Simple@L5
    Настройки формата : BVOP2
    Параметр BVOP формата : 2
    Параметр QPel формата : Нет
    Параметр GMC формата : Без точки перехода
    Параметр матрицы формата : Default (H.263)
    Режим смешивания : Сжатый битовый поток
    Идентификатор кодека : XVID
    Идентификатор кодека/Подсказка : XviD
    Продолжительность : 3 м. 3 с.
    Битрейт : 3500 Кбит/сек
    Ширина : 720 пикселей
    Высота : 536 пикселей
    Соотношение сторон : 4: 3
    Частота кадров : 25, 000 кадров/сек
    Цветовое пространство : YUV
    Субдискретизация насыщенности : 4: 2: 0
    Битовая глубина : 8 бит
    Тип развёртки : Прогрессивная
    Метод сжатия : С потерями
    Бит/(Пиксели*Кадры) : 0.363
    Размер потока : 76, 5 Мбайт (91%)
    Библиотека кодирования : XviD 1.2.1 (UTC 2008-12-04)
    Аудио
    Идентификатор : 1
    Формат : MPEG Audio
    Версия формата : Version 1
    Профиль формата : Layer 3
    Идентификатор кодека : 55
    Идентификатор кодека/Подсказка : MP3
    Продолжительность : 3 м. 3 с.
    Вид битрейта : Постоянный
    Битрейт : 320 Кбит/сек
    Каналы : 2 канала
    Частота : 48, 0 КГц
    Метод сжатия : С потерями
    Размер потока : 7, 00 Мбайт (8%)
    Выравнивание : Соединение по промежуткам
    Продолжительность промежутка : 40 мс. (1, 00 видеокадр)
    Время предзагрузки промежутка : 504 мс.
    Библиотека кодирования : LAME3.99r
    Настройки программы : -m s -V 4 -q 2 -lowpass 20.5
    Общее
    Полное имя : E: ФильмыклипыПесня годаПесня года 83-91 - Лучшее от ALEXnROCK avi 106 Александр Серов - Мадонна.avi
    Формат : AVI
    Формат/Информация : Audio Video Interleave
    Размер файла : 132 Мбайт
    Продолжительность : 4 м. 48 с.
    Общий поток : 3831 Кбит/сек
    Программа кодирования : VirtualDubMod 1.5.10.2 (build 2540/release)
    Библиотека кодирования : VirtualDubMod build 2540/release
    Видео
    Идентификатор : 0
    Формат : MPEG-4 Visual
    Профиль формата : Advanced Simple@L5
    Настройки формата : BVOP2
    Параметр BVOP формата : 2
    Параметр QPel формата : Нет
    Параметр GMC формата : Без точки перехода
    Параметр матрицы формата : Default (H.263)
    Режим смешивания : Сжатый битовый поток
    Идентификатор кодека : XVID
    Идентификатор кодека/Подсказка : XviD
    Продолжительность : 4 м. 48 с.
    Битрейт : 3501 Кбит/сек
    Ширина : 720 пикселей
    Высота : 528 пикселей
    Соотношение сторон : 4: 3
    Частота кадров : 25, 000 кадров/сек
    Цветовое пространство : YUV
    Субдискретизация насыщенности : 4: 2: 0
    Битовая глубина : 8 бит
    Тип развёртки : Прогрессивная
    Метод сжатия : С потерями
    Бит/(Пиксели*Кадры) : 0.368
    Размер потока : 120 Мбайт (91%)
    Библиотека кодирования : XviD 1.2.1 (UTC 2008-12-04)
    Аудио
    Идентификатор : 1
    Формат : MPEG Audio
    Версия формата : Version 1
    Профиль формата : Layer 3
    Идентификатор кодека : 55
    Идентификатор кодека/Подсказка : MP3
    Продолжительность : 4 м. 48 с.
    Вид битрейта : Постоянный
    Битрейт : 320 Кбит/сек
    Каналы : 2 канала
    Частота : 48, 0 КГц
    Метод сжатия : С потерями
    Размер потока : 11, 0 Мбайт (8%)
    Выравнивание : Соединение по промежуткам
    Продолжительность промежутка : 40 мс. (1, 00 видеокадр)
    Время предзагрузки промежутка : 504 мс.
    Библиотека кодирования : LAME3.99r
    Настройки программы : -m s -V 4 -q 2 -lowpass 20.5
    Общее
    Полное имя : E: ФильмыклипыПесня годаПесня года 83-91 - Лучшее от ALEXnROCK avi 107 Алла Пугачева - Миллион аллых роз.avi
    Формат : AVI
    Формат/Информация : Audio Video Interleave
    Размер файла : 159 Мбайт
    Продолжительность : 5 м. 48 с.
    Общий поток : 3829 Кбит/сек
    Программа кодирования : VirtualDubMod 1.5.10.2 (build 2540/release)
    Библиотека кодирования : VirtualDubMod build 2540/release
    Видео
    Идентификатор : 0
    Формат : MPEG-4 Visual
    Профиль формата : Advanced Simple@L5
    Настройки формата : BVOP1
    Параметр BVOP формата : 1
    Параметр QPel формата : Нет
    Параметр GMC формата : Без точки перехода
    Параметр матрицы формата : Default (H.263)
    Режим смешивания : Сжатый битовый поток
    Идентификатор кодека : XVID
    Идентификатор кодека/Подсказка : XviD
    Продолжительность : 5 м. 48 с.
    Битрейт : 3500 Кбит/сек
    Ширина : 720 пикселей
    Высота : 536 пикселей
    Соотношение сторон : 4: 3
    Частота кадров : 25, 000 кадров/сек
    Цветовое пространство : YUV
    Субдискретизация насыщенности : 4: 2: 0
    Битовая глубина : 8 бит
    Тип развёртки : Прогрессивная
    Метод сжатия : С потерями
    Бит/(Пиксели*Кадры) : 0.363
    Размер потока : 145 Мбайт (91%)
    Библиотека кодирования : XviD 1.2.1 (UTC 2008-12-04)
    Аудио
    Идентификатор : 1
    Формат : MPEG Audio
    Версия формата : Version 1
    Профиль формата : Layer 3
    Идентификатор кодека : 55
    Идентификатор кодека/Подсказка : MP3
    Продолжительность : 5 м. 48 с.
    Вид битрейта : Постоянный
    Битрейт : 320 Кбит/сек
    Каналы : 2 канала
    Частота : 48, 0 КГц
    Метод сжатия : С потерями
    Размер потока : 13, 3 Мбайт (8%)
    Выравнивание : Соединение по промежуткам
    Продолжительность промежутка : 40 мс. (1, 00 видеокадр)
    Время предзагрузки промежутка : 504 мс.
    Библиотека кодирования : LAME3.99r
    Настройки программы : -m s -V 4 -q 2 -lowpass 20.5
    Общее
    Полное имя : E: ФильмыклипыПесня годаПесня года 83-91 - Лучшее от ALEXnROCK avi 108 Вячеслав Добрынин - Колдовское озеро.avi
    Формат : AVI
    Формат/Информация : Audio Video Interleave
    Размер файла : 76, 3 Мбайт
    Продолжительность : 2 м. 51 с.
    Общий поток : 3724 Кбит/сек
    Программа кодирования : VirtualDubMod 1.5.10.2 (build 2540/release)
    Библиотека кодирования : VirtualDubMod build 2540/release
    Видео
    Идентификатор : 0
    Формат : MPEG-4 Visual
    Профиль формата : Advanced Simple@L5
    Настройки формата : BVOP2
    Параметр BVOP формата : 2
    Параметр QPel формата : Нет
    Параметр GMC формата : Без точки перехода
    Параметр матрицы формата : Default (H.263)
    Режим смешивания : Сжатый битовый поток
    Идентификатор кодека : XVID
    Идентификатор кодека/Подсказка : XviD
    Продолжительность : 2 м. 51 с.
    Битрейт : 3394 Кбит/сек
    Ширина : 720 пикселей
    Высота : 536 пикселей
    Соотношение сторон : 4: 3
    Частота кадров : 25, 000 кадров/сек
    Цветовое пространство : YUV
    Субдискретизация насыщенности : 4: 2: 0
    Битовая глубина : 8 бит
    Тип развёртки : Прогрессивная
    Метод сжатия : С потерями
    Бит/(Пиксели*Кадры) : 0.352
    Размер потока : 69, 5 Мбайт (91%)
    Библиотека кодирования : XviD 1.2.1 (UTC 2008-12-04)
    Аудио
    Идентификатор : 1
    Формат : MPEG Audio
    Версия формата : Version 1
    Профиль формата : Layer 3
    Идентификатор кодека : 55
    Идентификатор кодека/Подсказка : MP3
    Продолжительность : 2 м. 51 с.
    Вид битрейта : Постоянный
    Битрейт : 320 Кбит/сек
    Каналы : 2 канала
    Частота : 48, 0 КГц
    Метод сжатия : С потерями
    Размер потока : 6, 56 Мбайт (9%)
    Выравнивание : Соединение по промежуткам
    Продолжительность промежутка : 40 мс. (1, 00 видеокадр)
    Время предзагрузки промежутка : 504 мс.
    Библиотека кодирования : LAME3.99r
    Настройки программы : -m s -V 4 -q 2 -lowpass 20.5
    Общее
    Полное имя : E: ФильмыклипыПесня годаПесня года 83-91 - Лучшее от ALEXnROCK avi 109 Женя Белоусов - Алешка.avi
    Формат : AVI
    Формат/Информация : Audio Video Interleave
    Размер файла : 108 Мбайт
    Продолжительность : 3 м. 56 с.
    Общий поток : 3830 Кбит/сек
    Программа кодирования : VirtualDubMod 1.5.10.2 (build 2540/release)
    Библиотека кодирования : VirtualDubMod build 2540/release
    Видео
    Идентификатор : 0
    Формат : MPEG-4 Visual
    Профиль формата : Advanced Simple@L5
    Настройки формата : BVOP2
    Параметр BVOP формата : 2
    Параметр QPel формата : Нет
    Параметр GMC формата : Без точки перехода
    Параметр матрицы формата : Default (H.263)
    Режим смешивания : Сжатый битовый поток
    Идентификатор кодека : XVID
    Идентификатор кодека/Подсказка : XviD
    Продолжительность : 3 м. 56 с.
    Битрейт : 3500 Кбит/сек
    Ширина : 720 пикселей
    Высота : 536 пикселей
    Соотношение сторон : 4: 3
    Частота кадров : 25, 000 кадров/сек
    Цветовое пространство : YUV
    Субдискретизация насыщенности : 4: 2: 0
    Битовая глубина : 8 бит
    Тип развёртки : Прогрессивная
    Метод сжатия : С потерями
    Бит/(Пиксели*Кадры) : 0.363
    Размер потока : 98, 9 Мбайт (91%)
    Библиотека кодирования : XviD 1.2.1 (UTC 2008-12-04)
    Аудио
    Идентификатор : 1
    Формат : MPEG Audio
    Версия формата : Version 1
    Профиль формата : Layer 3
    Идентификатор кодека : 55
    Идентификатор кодека/Подсказка : MP3
    Продолжительность : 3 м. 56 с.
    Вид битрейта : Постоянный
    Битрейт : 320 Кбит/сек
    Каналы : 2 канала
    Частота : 48, 0 КГц
    Метод сжатия : С потерями
    Размер потока : 9, 04 Мбайт (8%)
    Выравнивание : Соединение по промежуткам
    Продолжительность промежутка : 40 мс. (1, 00 видеокадр)
    Время предзагрузки промежутка : 504 мс.
    Библиотека кодирования : LAME3.99r
    Настройки программы : -m s -V 4 -q 2 -lowpass 20.5
    Общее
    Полное имя : E: ФильмыклипыПесня годаПесня года 83-91 - Лучшее от ALEXnROCK avi 110 Игорь Саруханов - Дорогие мои старики.avi
    Формат : AVI
    Формат/Информация : Audio Video Interleave
    Размер файла : 117 Мбайт
    Продолжительность : 4 м. 8 с.
    Общий поток : 3930 Кбит/сек
    Программа кодирования : VirtualDubMod 1.5.10.2 (build 2540/release)
    Библиотека кодирования : VirtualDubMod build 2540/release
    Видео
    Идентификатор : 0
    Формат : MPEG-4 Visual
    Профиль формата : Advanced Simple@L5
    Настройки формата : BVOP2
    Параметр BVOP формата : 2
    Параметр QPel формата : Нет
    Параметр GMC формата : Без точки перехода
    Параметр матрицы формата : Default (H.263)
    Режим смешивания : Сжатый битовый поток
    Идентификатор кодека : XVID
    Идентификатор кодека/Подсказка : XviD
    Продолжительность : 4 м. 8 с.
    Битрейт : 3600 Кбит/сек
    Ширина : 720 пикселей
    Высота : 536 пикселей
    Соотношение сторон : 4: 3
    Частота кадров : 25, 000 кадров/сек
    Цветовое пространство : YUV
    Субдискретизация насыщенности : 4: 2: 0
    Битовая глубина : 8 бит
    Тип развёртки : Прогрессивная
    Метод сжатия : С потерями
    Бит/(Пиксели*Кадры) : 0.373
    Размер потока : 107 Мбайт (92%)
    Библиотека кодирования : XviD 1.2.1 (UTC 2008-12-04)
    Аудио
    Идентификатор : 1
    Формат : MPEG Audio
    Версия формата : Version 1
    Профиль формата : Layer 3
    Идентификатор кодека : 55
    Идентификатор кодека/Подсказка : MP3
    Продолжительность : 4 м. 8 с.
    Вид битрейта : Постоянный
    Битрейт : 320 Кбит/сек
    Каналы : 2 канала
    Частота : 48, 0 КГц
    Метод сжатия : С потерями
    Размер потока : 9, 49 Мбайт (8%)
    Выравнивание : Соединение по промежуткам
    Продолжительность промежутка : 40 мс. (1, 00 видеокадр)
    Время предзагрузки промежутка : 504 мс.
    Библиотека кодирования : LAME3.99r
    Настройки программы : -m s -V 4 -q 2 -lowpass 20.5
    Общее
    Полное имя : E: ФильмыклипыПесня годаПесня года 83-91 - Лучшее от ALEXnROCK avi 111 Лариса Долина - Кот Бегемот.avi
    Формат : AVI
    Формат/Информация : Audio Video Interleave
    Размер файла : 105 Мбайт
    Продолжительность : 3 м. 53 с.
    Общий поток : 3761 Кбит/сек
    Программа кодирования : VirtualDubMod 1.5.10.2 (build 2540/release)
    Библиотека кодирования : VirtualDubMod build 2540/release
    Видео
    Идентификатор : 0
    Формат : MPEG-4 Visual
    Профиль формата : Advanced Simple@L5
    Настройки формата : BVOP2
    Параметр BVOP формата : 2
    Параметр QPel формата : Нет
    Параметр GMC формата : Без точки перехода
    Параметр матрицы формата : Default (H.263)
    Режим смешивания : Сжатый битовый поток
    Идентификатор кодека : XVID
    Идентификатор кодека/Подсказка : XviD
    Продолжительность : 3 м. 53 с.
    Битрейт : 3431 Кбит/сек
    Ширина : 720 пикселей
    Высота : 536 пикселей
    Соотношение сторон : 4: 3
    Частота кадров : 25, 000 кадров/сек
    Цветовое пространство : YUV
    Субдискретизация насыщенности : 4: 2: 0
    Битовая глубина : 8 бит
    Тип развёртки : Прогрессивная
    Метод сжатия : С потерями
    Бит/(Пиксели*Кадры) : 0.356
    Размер потока : 95, 4 Мбайт (91%)
    Библиотека кодирования : XviD 1.2.1 (UTC 2008-12-04)
    Аудио
    Идентификатор : 1
    Формат : MPEG Audio
    Версия формата : Version 1
    Профиль формата : Layer 3
    Идентификатор кодека : 55
    Идентификатор кодека/Подсказка : MP3
    Продолжительность : 3 м. 53 с.
    Вид битрейта : Постоянный
    Битрейт : 320 Кбит/сек
    Каналы : 2 канала
    Частота : 48, 0 КГц
    Метод сжатия : С потерями
    Размер потока : 8, 90 Мбайт (9%)
    Выравнивание : Соединение по промежуткам
    Продолжительность промежутка : 40 мс. (1, 00 видеокадр)
    Время предзагрузки промежутка : 504 мс.
    Библиотека кодирования : LAME3.99r
    Настройки программы : -m s -V 4 -q 2 -lowpass 20.5
    Общее
    Полное имя : E: ФильмыклипыПесня годаПесня года 83-91 - Лучшее от ALEXnROCK avi 112 Игорь Тальков - Бывший подъесаул.avi
    Формат : AVI
    Формат/Информация : Audio Video Interleave
    Размер файла : 161 Мбайт
    Продолжительность : 5 м. 52 с.
    Общий поток : 3830 Кбит/сек
    Программа кодирования : VirtualDubMod 1.5.10.2 (build 2540/release)
    Библиотека кодирования : VirtualDubMod build 2540/release
    Видео
    Идентификатор : 0
    Формат : MPEG-4 Visual
    Профиль формата : Advanced Simple@L5
    Настройки формата : BVOP2
    Параметр BVOP формата : 2
    Параметр QPel формата : Нет
    Параметр GMC формата : Без точки перехода
    Параметр матрицы формата : Default (H.263)
    Режим смешивания : Сжатый битовый поток
    Идентификатор кодека : XVID
    Идентификатор кодека/Подсказка : XviD
    Продолжительность : 5 м. 52 с.
    Битрейт : 3500 Кбит/сек
    Ширина : 720 пикселей
    Высота : 536 пикселей
    Соотношение сторон : 4: 3
    Частота кадров : 25, 000 кадров/сек
    Цветовое пространство : YUV
    Субдискретизация насыщенности : 4: 2: 0
    Битовая глубина : 8 бит
    Тип развёртки : Прогрессивная
    Метод сжатия : С потерями
    Бит/(Пиксели*Кадры) : 0.363
    Размер потока : 147 Мбайт (91%)
    Библиотека кодирования : XviD 1.2.1 (UTC 2008-12-04)
    Аудио
    Идентификатор : 1
    Формат : MPEG Audio
    Версия формата : Version 1
    Профиль формата : Layer 3
    Идентификатор кодека : 55
    Идентификатор кодека/Подсказка : MP3
    Продолжительность : 5 м. 52 с.
    Вид битрейта : Постоянный
    Битрейт : 320 Кбит/сек
    Каналы : 2 канала
    Частота : 48, 0 КГц
    Метод сжатия : С потерями
    Размер потока : 13, 4 Мбайт (8%)
    Выравнивание : Соединение по промежуткам
    Продолжительность промежутка : 40 мс. (1, 00 видеокадр)
    Время предзагрузки промежутка : 504 мс.
    Библиотека кодирования : LAME3.99r
    Настройки программы : -m s -V 4 -q 2 -lowpass 20.5
    Общее
    Полное имя : E: ФильмыклипыПесня годаПесня года 83-91 - Лучшее от ALEXnROCK avi 113 София Ротару - Была не была.avi
    Формат : AVI
    Формат/Информация : Audio Video Interleave
    Размер файла : 114 Мбайт
    Продолжительность : 4 м. 10 с.
    Общий поток : 3830 Кбит/сек
    Программа кодирования : VirtualDubMod 1.5.10.2 (build 2540/release)
    Библиотека кодирования : VirtualDubMod build 2540/release
    Видео
    Идентификатор : 0
    Формат : MPEG-4 Visual
    Профиль формата : Advanced Simple@L5
    Настройки формата : BVOP2
    Параметр BVOP формата : 2
    Параметр QPel формата : Нет
    Параметр GMC формата : Без точки перехода
    Параметр матрицы формата : Default (H.263)
    Режим смешивания : Сжатый битовый поток
    Идентификатор кодека : XVID
    Идентификатор кодека/Подсказка : XviD
    Продолжительность : 4 м. 10 с.
    Битрейт : 3500 Кбит/сек
    Ширина : 720 пикселей
    Высота : 536 пикселей
    Соотношение сторон : 4: 3
    Частота кадров : 25, 000 кадров/сек
    Цветовое пространство : YUV
    Субдискретизация насыщенности : 4: 2: 0
    Битовая глубина : 8 бит
    Тип развёртки : Прогрессивная
    Метод сжатия : С потерями
    Бит/(Пиксели*Кадры) : 0.363
    Размер потока : 104 Мбайт (91%)
    Библиотека кодирования : XviD 1.2.1 (UTC 2008-12-04)
    Аудио
    Идентификатор : 1
    Формат : MPEG Audio
    Версия формата : Version 1
    Профиль формата : Layer 3
    Идентификатор кодека : 55
    Идентификатор кодека/Подсказка : MP3
    Продолжительность : 4 м. 10 с.
    Вид битрейта : Постоянный
    Битрейт : 320 Кбит/сек
    Каналы : 2 канала
    Частота : 48, 0 КГц
    Метод сжатия : С потерями
    Размер потока : 9, 54 Мбайт (8%)
    Выравнивание : Соединение по промежуткам
    Продолжительность промежутка : 40 мс. (1, 00 видеокадр)
    Время предзагрузки промежутка : 504 мс.
    Библиотека кодирования : LAME3.99r
    Настройки программы : -m s -V 4 -q 2 -lowpass 20.5
    Общее
    Полное имя : E: ФильмыклипыПесня годаПесня года 83-91 - Лучшее от ALEXnROCK avi 114 Дмитрий Маликов - До завтра.avi
    Формат : AVI
    Формат/Информация : Audio Video Interleave
    Размер файла : 103 Мбайт
    Продолжительность : 3 м. 48 с.
    Общий поток : 3775 Кбит/сек
    Программа кодирования : VirtualDubMod 1.5.10.2 (build 2540/release)
    Библиотека кодирования : VirtualDubMod build 2540/release
    Видео
    Идентификатор : 0
    Формат : MPEG-4 Visual
    Профиль формата : Advanced Simple@L5
    Настройки формата : BVOP2
    Параметр BVOP формата : 2
    Параметр QPel формата : Нет
    Параметр GMC формата : Без точки перехода
    Параметр матрицы формата : Default (H.263)
    Режим смешивания : Сжатый битовый поток
    Идентификатор кодека : XVID
    Идентификатор кодека/Подсказка : XviD
    Продолжительность : 3 м. 48 с.
    Битрейт : 3445 Кбит/сек
    Ширина : 720 пикселей
    Высота : 536 пикселей
    Соотношение сторон : 4: 3
    Частота кадров : 25, 000 кадров/сек
    Цветовое пространство : YUV
    Субдискретизация насыщенности : 4: 2: 0
    Битовая глубина : 8 бит
    Тип развёртки : Прогрессивная
    Метод сжатия : С потерями
    Бит/(Пиксели*Кадры) : 0.357
    Размер потока : 93, 9 Мбайт (91%)
    Библиотека кодирования : XviD 1.2.1 (UTC 2008-12-04)
    Аудио
    Идентификатор : 1
    Формат : MPEG Audio
    Версия формата : Version 1
    Профиль формата : Layer 3
    Идентификатор кодека : 55
    Идентификатор кодека/Подсказка : MP3
    Продолжительность : 3 м. 48 с.
    Вид битрейта : Постоянный
    Битрейт : 320 Кбит/сек
    Каналы : 2 канала
    Частота : 48, 0 КГц
    Метод сжатия : С потерями
    Размер потока : 8, 72 Мбайт (8%)
    Выравнивание : Соединение по промежуткам
    Продолжительность промежутка : 40 мс. (1, 00 видеокадр)
    Время предзагрузки промежутка : 504 мс.
    Библиотека кодирования : LAME3.99r
    Настройки программы : -m s -V 4 -q 2 -lowpass 20.5
    Общее
    Полное имя : E: ФильмыклипыПесня годаПесня года 83-91 - Лучшее от ALEXnROCK avi 115 Санкт-Петербург - Очарована, околдована.avi
    Формат : AVI
    Формат/Информация : Audio Video Interleave
    Размер файла : 102 Мбайт
    Продолжительность : 3 м. 48 с.
    Общий поток : 3741 Кбит/сек
    Программа кодирования : VirtualDubMod 1.5.10.2 (build 2540/release)
    Библиотека кодирования : VirtualDubMod build 2540/release
    Видео
    Идентификатор : 0
    Формат : MPEG-4 Visual
    Профиль формата : Advanced Simple@L5
    Настройки формата : BVOP1
    Параметр BVOP формата : 1
    Параметр QPel формата : Нет
    Параметр GMC формата : Без точки перехода
    Параметр матрицы формата : Default (H.263)
    Режим смешивания : Сжатый битовый поток
    Идентификатор кодека : XVID
    Идентификатор кодека/Подсказка : XviD
    Продолжительность : 3 м. 48 с.
    Битрейт : 3411 Кбит/сек
    Ширина : 720 пикселей
    Высота : 536 пикселей
    Соотношение сторон : 4: 3
    Частота кадров : 25, 000 кадров/сек
    Цветовое пространство : YUV
    Субдискретизация насыщенности : 4: 2: 0
    Битовая глубина : 8 бит
    Тип развёртки : Прогрессивная
    Метод сжатия : С потерями
    Бит/(Пиксели*Кадры) : 0.354
    Размер потока : 92, 8 Мбайт (91%)
    Библиотека кодирования : XviD 1.2.1 (UTC 2008-12-04)
    Аудио
    Идентификатор : 1
    Формат : MPEG Audio
    Версия формата : Version 1
    Профиль формата : Layer 3
    Идентификатор кодека : 55
    Идентификатор кодека/Подсказка : MP3
    Продолжительность : 3 м. 48 с.
    Вид битрейта : Постоянный
    Битрейт : 320 Кбит/сек
    Каналы : 2 канала
    Частота : 48, 0 КГц
    Метод сжатия : С потерями
    Размер потока : 8, 70 Мбайт (9%)
    Выравнивание : Соединение по промежуткам
    Продолжительность промежутка : 40 мс. (1, 00 видеокадр)
    Время предзагрузки промежутка : 504 мс.
    Библиотека кодирования : LAME3.99r
    Настройки программы : -m s -V 4 -q 2 -lowpass 20.5
    Общее
    Полное имя : E: ФильмыклипыПесня годаПесня года 83-91 - Лучшее от ALEXnROCK avi 116 Алексей Глызин - Пепел любви.avi
    Формат : AVI
    Формат/Информация : Audio Video Interleave
    Размер файла : 155 Мбайт
    Продолжительность : 5 м. 46 с.
    Общий поток : 3761 Кбит/сек
    Программа кодирования : VirtualDubMod 1.5.10.2 (build 2540/release)
    Библиотека кодирования : VirtualDubMod build 2540/release
    Видео
    Идентификатор : 0
    Формат : MPEG-4 Visual
    Профиль формата : Advanced Simple@L5
    Настройки формата : BVOP2
    Параметр BVOP формата : 2
    Параметр QPel формата : Нет
    Параметр GMC формата : Без точки перехода
    Параметр матрицы формата : Default (H.263)
    Режим смешивания : Сжатый битовый поток
    Идентификатор кодека : XVID
    Идентификатор кодека/Подсказка : XviD
    Продолжительность : 5 м. 46 с.
    Битрейт : 3431 Кбит/сек
    Ширина : 720 пикселей
    Высота : 536 пикселей
    Соотношение сторон : 4: 3
    Частота кадров : 25, 000 кадров/сек
    Цветовое пространство : YUV
    Субдискретизация насыщенности : 4: 2: 0
    Битовая глубина : 8 бит
    Тип развёртки : Прогрессивная
    Метод сжатия : С потерями
    Бит/(Пиксели*Кадры) : 0.356
    Размер потока : 142 Мбайт (91%)
    Библиотека кодирования : XviD 1.2.1 (UTC 2008-12-04)
    Аудио
    Идентификатор : 1
    Формат : MPEG Audio
    Версия формата : Version 1
    Профиль формата : Layer 3
    Идентификатор кодека : 55
    Идентификатор кодека/Подсказка : MP3
    Продолжительность : 5 м. 46 с.
    Вид битрейта : Постоянный
    Битрейт : 320 Кбит/сек
    Каналы : 2 канала
    Частота : 48, 0 КГц
    Метод сжатия : С потерями
    Размер потока : 13, 2 Мбайт (9%)
    Выравнивание : Соединение по промежуткам
    Продолжительность промежутка : 40 мс. (1, 00 видеокадр)
    Время предзагрузки промежутка : 504 мс.
    Библиотека кодирования : LAME3.99r
    Настройки программы : -m s -V 4 -q 2 -lowpass 20.5
    Общее
    Полное имя : E: ФильмыклипыПесня годаПесня года 83-91 - Лучшее от ALEXnROCK avi 117 Кар мэн - Парень из Африки.avi
    Формат : AVI
    Формат/Информация : Audio Video Interleave
    Размер файла : 108 Мбайт
    Продолжительность : 3 м. 56 с.
    Общий поток : 3830 Кбит/сек
    Программа кодирования : VirtualDubMod 1.5.10.2 (build 2540/release)
    Библиотека кодирования : VirtualDubMod build 2540/release
    Видео
    Идентификатор : 0
    Формат : MPEG-4 Visual
    Профиль формата : Advanced Simple@L5
    Настройки формата : BVOP2
    Параметр BVOP формата : 2
    Параметр QPel формата : Нет
    Параметр GMC формата : Без точки перехода
    Параметр матрицы формата : Default (H.263)
    Режим смешивания : Сжатый битовый поток
    Идентификатор кодека : XVID
    Идентификатор кодека/Подсказка : XviD
    Продолжительность : 3 м. 56 с.
    Битрейт : 3500 Кбит/сек
    Ширина : 720 пикселей
    Высота : 536 пикселей
    Соотношение сторон : 4: 3
    Частота кадров : 25, 000 кадров/сек
    Цветовое пространство : YUV
    Субдискретизация насыщенности : 4: 2: 0
    Битовая глубина : 8 бит
    Тип развёртки : Прогрессивная
    Метод сжатия : С потерями
    Бит/(Пиксели*Кадры) : 0.363
    Размер потока : 98, 8 Мбайт (91%)
    Библиотека кодирования : XviD 1.2.1 (UTC 2008-12-04)
    Аудио
    Идентификатор : 1
    Формат : MPEG Audio
    Версия формата : Version 1
    Профиль формата : Layer 3
    Идентификатор кодека : 55
    Идентификатор кодека/Подсказка : MP3
    Продолжительность : 3 м. 56 с.
    Вид битрейта : Постоянный
    Битрейт : 320 Кбит/сек
    Каналы : 2 канала
    Частота : 48, 0 КГц
    Метод сжатия : С потерями
    Размер потока : 9, 03 Мбайт (8%)
    Выравнивание : Соединение по промежуткам
    Продолжительность промежутка : 40 мс. (1, 00 видеокадр)
    Время предзагрузки промежутка : 504 мс.
    Библиотека кодирования : LAME3.99r
    Настройки программы : -m s -V 4 -q 2 -lowpass 20.5
    Общее
    Полное имя : E: ФильмыклипыПесня годаПесня года 83-91 - Лучшее от ALEXnROCK avi 118 Иосиф Кобзон - Памяти друзей.avi
    Формат : AVI
    Формат/Информация : Audio Video Interleave
    Размер файла : 147 Мбайт
    Продолжительность : 5 м. 23 с.
    Общий поток : 3829 Кбит/сек
    Программа кодирования : VirtualDubMod 1.5.10.2 (build 2540/release)
    Библиотека кодирования : VirtualDubMod build 2540/release
    Видео
    Идентификатор : 0
    Формат : MPEG-4 Visual
    Профиль формата : Advanced Simple@L5
    Настройки формата : BVOP2
    Параметр BVOP формата : 2
    Параметр QPel формата : Нет
    Параметр GMC формата : Без точки перехода
    Параметр матрицы формата : Default (H.263)
    Режим смешивания : Сжатый битовый поток
    Идентификатор кодека : XVID
    Идентификатор кодека/Подсказка : XviD
    Продолжительность : 5 м. 23 с.
    Битрейт : 3500 Кбит/сек
    Ширина : 720 пикселей
    Высота : 536 пикселей
    Соотношение сторон : 4: 3
    Частота кадров : 25, 000 кадров/сек
    Цветовое пространство : YUV
    Субдискретизация насыщенности : 4: 2: 0
    Битовая глубина : 8 бит
    Тип развёртки : Прогрессивная
    Метод сжатия : С потерями
    Бит/(Пиксели*Кадры) : 0.363
    Размер потока : 135 Мбайт (91%)
    Библиотека кодирования : XviD 1.2.1 (UTC 2008-12-04)
    Аудио
    Идентификатор : 1
    Формат : MPEG Audio
    Версия формата : Version 1
    Профиль формата : Layer 3
    Идентификатор кодека : 55
    Идентификатор кодека/Подсказка : MP3
    Продолжительность : 5 м. 23 с.
    Вид битрейта : Постоянный
    Битрейт : 320 Кбит/сек
    Каналы : 2 канала
    Частота : 48, 0 КГц
    Метод сжатия : С потерями
    Размер потока : 12, 3 Мбайт (8%)
    Выравнивание : Соединение по промежуткам
    Продолжительность промежутка : 40 мс. (1, 00 видеокадр)
    Время предзагрузки промежутка : 504 мс.
    Библиотека кодирования : LAME3.99r
    Настройки программы : -m s -V 4 -q 2 -lowpass 20.5
    Общее
    Полное имя : E: ФильмыклипыПесня годаПесня года 83-91 - Лучшее от ALEXnROCK avi 119 Любэ - Атас.avi
    Формат : AVI
    Формат/Информация : Audio Video Interleave
    Размер файла : 82, 9 Мбайт
    Продолжительность : 3 м. 8 с.
    Общий поток : 3694 Кбит/сек
    Программа кодирования : VirtualDubMod 1.5.10.2 (build 2540/release)
    Библиотека кодирования : VirtualDubMod build 2540/release
    Видео
    Идентификатор : 0
    Формат : MPEG-4 Visual
    Профиль формата : Advanced Simple@L5
    Настройки формата : BVOP2
    Параметр BVOP формата : 2
    Параметр QPel формата : Нет
    Параметр GMC формата : Без точки перехода
    Параметр матрицы формата : Default (H.263)
    Режим смешивания : Сжатый битовый поток
    Идентификатор кодека : XVID
    Идентификатор кодека/Подсказка : XviD
    Продолжительность : 3 м. 8 с.
    Битрейт : 3364 Кбит/сек
    Ширина : 720 пикселей
    Высота : 536 пикселей
    Соотношение сторон : 4: 3
    Частота кадров : 25, 000 кадров/сек
    Цветовое пространство : YUV
    Субдискретизация насыщенности : 4: 2: 0
    Битовая глубина : 8 бит
    Тип развёртки : Прогрессивная
    Метод сжатия : С потерями
    Бит/(Пиксели*Кадры) : 0.349
    Размер потока : 75, 5 Мбайт (91%)
    Библиотека кодирования : XviD 1.2.1 (UTC 2008-12-04)
    Аудио
    Идентификатор : 1
    Формат : MPEG Audio
    Версия формата : Version 1
    Профиль формата : Layer 3
    Идентификатор кодека : 55
    Идентификатор кодека/Подсказка : MP3
    Продолжительность : 3 м. 8 с.
    Вид битрейта : Постоянный
    Битрейт : 320 Кбит/сек
    Каналы : 2 канала
    Частота : 48, 0 КГц
    Метод сжатия : С потерями
    Размер потока : 7, 18 Мбайт (9%)
    Выравнивание : Соединение по промежуткам
    Продолжительность промежутка : 40 мс. (1, 00 видеокадр)
    Время предзагрузки промежутка : 504 мс.
    Библиотека кодирования : LAME3.99r
    Настройки программы : -m s -V 4 -q 2 -lowpass 20.5
    Общее
    Полное имя : E: ФильмыклипыПесня годаПесня года 83-91 - Лучшее от ALEXnROCK avi 120 Алла Пугачёва и Владимир Кузьмин - Две звезды.avi
    Формат : AVI
    Формат/Информация : Audio Video Interleave
    Размер файла : 110 Мбайт
    Продолжительность : 4 м. 1 с.
    Общий поток : 3832 Кбит/сек
    Программа кодирования : VirtualDubMod 1.5.10.2 (build 2540/release)
    Библиотека кодирования : VirtualDubMod build 2540/release
    Видео
    Идентификатор : 0
    Формат : MPEG-4 Visual
    Профиль формата : Advanced Simple@L5
    Настройки формата : BVOP2
    Параметр BVOP формата : 2
    Параметр QPel формата : Нет
    Параметр GMC формата : Без точки перехода
    Параметр матрицы формата : Default (H.263)
    Режим смешивания : Сжатый битовый поток
    Идентификатор кодека : XVID
    Идентификатор кодека/Подсказка : XviD
    Продолжительность : 4 м. 1 с.
    Битрейт : 3500 Кбит/сек
    Ширина : 720 пикселей
    Высота : 536 пикселей
    Соотношение сторон : 4: 3
    Частота кадров : 30, 000 кадров/сек
    Цветовое пространство : YUV
    Субдискретизация насыщенности : 4: 2: 0
    Битовая глубина : 8 бит
    Тип развёртки : Прогрессивная
    Метод сжатия : С потерями
    Бит/(Пиксели*Кадры) : 0.302
    Размер потока : 101 Мбайт (91%)
    Библиотека кодирования : XviD 1.2.1 (UTC 2008-12-04)
    Аудио
    Идентификатор : 1
    Формат : MPEG Audio
    Версия формата : Version 1
    Профиль формата : Layer 3
    Идентификатор кодека : 55
    Идентификатор кодека/Подсказка : MP3
    Продолжительность : 4 м. 1 с.
    Вид битрейта : Постоянный
    Битрейт : 320 Кбит/сек
    Каналы : 2 канала
    Частота : 48, 0 КГц
    Метод сжатия : С потерями
    Размер потока : 9, 21 Мбайт (8%)
    Выравнивание : Соединение по промежуткам
    Продолжительность промежутка : 33 мс. (1, 00 видеокадр)
    Время предзагрузки промежутка : 504 мс.
    Библиотека кодирования : LAME3.99r
    Настройки программы : -m s -V 4 -q 2 -lowpass 20.5
    Общее
    Полное имя : E: ФильмыклипыПесня годаПесня года 83-91 - Лучшее от ALEXnROCK avi 121 Александр Малинин - Забава.avi
    Формат : AVI
    Формат/Информация : Audio Video Interleave
    Размер файла : 116 Мбайт
    Продолжительность : 4 м. 13 с.
    Общий поток : 3828 Кбит/сек
    Программа кодирования : VirtualDubMod 1.5.10.2 (build 2540/release)
    Библиотека кодирования : VirtualDubMod build 2540/release
    Видео
    Идентификатор : 0
    Формат : MPEG-4 Visual
    Профиль формата : Advanced Simple@L5
    Настройки формата : BVOP2
    Параметр BVOP формата : 2
    Параметр QPel формата : Нет
    Параметр GMC формата : Без точки перехода
    Параметр матрицы формата : Default (H.263)
    Режим смешивания : Сжатый битовый поток
    Идентификатор кодека : XVID
    Идентификатор кодека/Подсказка : XviD
    Продолжительность : 4 м. 13 с.
    Битрейт : 3499 Кбит/сек
    Ширина : 720 пикселей
    Высота : 536 пикселей
    Соотношение сторон : 4: 3
    Частота кадров : 25, 000 кадров/сек
    Цветовое пространство : YUV
    Субдискретизация насыщенности : 4: 2: 0
    Битовая глубина : 8 бит
    Тип развёртки : Прогрессивная
    Метод сжатия : С потерями
    Бит/(Пиксели*Кадры) : 0.363
    Размер потока : 106 Мбайт (91%)
    Библиотека кодирования : XviD 1.2.1 (UTC 2008-12-04)
    Аудио
    Идентификатор : 1
    Формат : MPEG Audio
    Версия формата : Version 1
    Профиль формата : Layer 3
    Идентификатор кодека : 55
    Идентификатор кодека/Подсказка : MP3
    Продолжительность : 4 м. 13 с.
    Вид битрейта : Постоянный
    Битрейт : 320 Кбит/сек
    Каналы : 2 канала
    Частота : 48, 0 КГц
    Метод сжатия : С потерями
    Размер потока : 9, 66 Мбайт (8%)
    Выравнивание : Соединение по промежуткам
    Продолжительность промежутка : 40 мс. (1, 00 видеокадр)
    Время предзагрузки промежутка : 504 мс.
    Библиотека кодирования : LAME3.99r
    Настройки программы : -m s -V 4 -q 2 -lowpass 20.5
    Общее
    Полное имя : E: ФильмыклипыПесня годаПесня года 83-91 - Лучшее от ALEXnROCK avi 122 Наташа Королева - Желтые тюльпаны.avi
    Формат : AVI
    Формат/Информация : Audio Video Interleave
    Размер файла : 127 Мбайт
    Продолжительность : 4 м. 42 с.
    Общий поток : 3767 Кбит/сек
    Программа кодирования : VirtualDubMod 1.5.10.2 (build 2540/release)
    Библиотека кодирования : VirtualDubMod build 2540/release
    Видео
    Идентификатор : 0
    Формат : MPEG-4 Visual
    Профиль формата : Advanced Simple@L5
    Настройки формата : BVOP2
    Параметр BVOP формата : 2
    Параметр QPel формата : Нет
    Параметр GMC формата : Без точки перехода
    Параметр матрицы формата : Default (H.263)
    Режим смешивания : Сжатый битовый поток
    Идентификатор кодека : XVID
    Идентификатор кодека/Подсказка : XviD
    Продолжительность : 4 м. 42 с.
    Битрейт : 3437 Кбит/сек
    Ширина : 720 пикселей
    Высота : 536 пикселей
    Соотношение сторон : 4: 3
    Частота кадров : 25, 000 кадров/сек
    Цветовое пространство : YUV
    Субдискретизация насыщенности : 4: 2: 0
    Битовая глубина : 8 бит
    Тип развёртки : Прогрессивная
    Метод сжатия : С потерями
    Бит/(Пиксели*Кадры) : 0.356
    Размер потока : 116 Мбайт (91%)
    Библиотека кодирования : XviD 1.2.1 (UTC 2008-12-04)
    Аудио
    Идентификатор : 1
    Формат : MPEG Audio
    Версия формата : Version 1
    Профиль формата : Layer 3
    Идентификатор кодека : 55
    Идентификатор кодека/Подсказка : MP3
    Продолжительность : 4 м. 42 с.
    Вид битрейта : Постоянный
    Битрейт : 320 Кбит/сек
    Каналы : 2 канала
    Частота : 48, 0 КГц
    Метод сжатия : С потерями
    Размер потока : 10, 8 Мбайт (8%)
    Выравнивание : Соединение по промежуткам
    Продолжительность промежутка : 40 мс. (1, 00 видеокадр)
    Время предзагрузки промежутка : 504 мс.
    Библиотека кодирования : LAME3.99r
    Настройки программы : -m s -V 4 -q 2 -lowpass 20.5
    Общее
    Полное имя : E: ФильмыклипыПесня годаПесня года 83-91 - Лучшее от ALEXnROCK avi 123 Браво - Вася.avi
    Формат : AVI
    Формат/Информация : Audio Video Interleave
    Размер файла : 91, 8 Мбайт
    Продолжительность : 3 м. 21 с.
    Общий поток : 3829 Кбит/сек
    Программа кодирования : VirtualDubMod 1.5.10.2 (build 2540/release)
    Библиотека кодирования : VirtualDubMod build 2540/release
    Видео
    Идентификатор : 0
    Формат : MPEG-4 Visual
    Профиль формата : Advanced Simple@L5
    Настройки формата : BVOP2
    Параметр BVOP формата : 2
    Параметр QPel формата : Нет
    Параметр GMC формата : Без точки перехода
    Параметр матрицы формата : Default (H.263)
    Режим смешивания : Сжатый битовый поток
    Идентификатор кодека : XVID
    Идентификатор кодека/Подсказка : XviD
    Продолжительность : 3 м. 21 с.
    Битрейт : 3500 Кбит/сек
    Ширина : 720 пикселей
    Высота : 536 пикселей
    Соотношение сторон : 4: 3
    Частота кадров : 25, 000 кадров/сек
    Цветовое пространство : YUV
    Субдискретизация насыщенности : 4: 2: 0
    Битовая глубина : 8 бит
    Тип развёртки : Прогрессивная
    Метод сжатия : С потерями
    Бит/(Пиксели*Кадры) : 0.363
    Размер потока : 83, 9 Мбайт (91%)
    Библиотека кодирования : XviD 1.2.1 (UTC 2008-12-04)
    Аудио
    Идентификатор : 1
    Формат : MPEG Audio
    Версия формата : Version 1
    Профиль формата : Layer 3
    Идентификатор кодека : 55
    Идентификатор кодека/Подсказка : MP3
    Продолжительность : 3 м. 20 с.
    Вид битрейта : Постоянный
    Битрейт : 320 Кбит/сек
    Каналы : 2 канала
    Частота : 48, 0 КГц
    Метод сжатия : С потерями
    Размер потока : 7, 66 Мбайт (8%)
    Выравнивание : Соединение по промежуткам
    Продолжительность промежутка : 40 мс. (1, 00 видеокадр)
    Время предзагрузки промежутка : 504 мс.
    Библиотека кодирования : LAME3.99r
    Настройки программы : -m s -V 4 -q 2 -lowpass 20.5
    Общее
    Полное имя : E: ФильмыклипыПесня годаПесня года 83-91 - Лучшее от ALEXnROCK avi 124 Лайма Вайкуле - Вернисаж.avi
    Формат : AVI
    Формат/Информация : Audio Video Interleave
    Размер файла : 132 Мбайт
    Продолжительность : 4 м. 48 с.
    Общий поток : 3831 Кбит/сек
    Программа кодирования : VirtualDubMod 1.5.10.2 (build 2540/release)
    Библиотека кодирования : VirtualDubMod build 2540/release
    Видео
    Идентификатор : 0
    Формат : MPEG-4 Visual
    Профиль формата : Advanced Simple@L5
    Настройки формата : BVOP2
    Параметр BVOP формата : 2
    Параметр QPel формата : Нет
    Параметр GMC формата : Без точки перехода
    Параметр матрицы формата : Default (H.263)
    Режим смешивания : Сжатый битовый поток
    Идентификатор кодека : XVID
    Идентификатор кодека/Подсказка : XviD
    Продолжительность : 4 м. 48 с.
    Битрейт : 3501 Кбит/сек
    Ширина : 720 пикселей
    Высота : 528 пикселей
    Соотношение сторон : 4: 3
    Частота кадров : 25, 000 кадров/сек
    Цветовое пространство : YUV
    Субдискретизация насыщенности : 4: 2: 0
    Битовая глубина : 8 бит
    Тип развёртки : Прогрессивная
    Метод сжатия : С потерями
    Бит/(Пиксели*Кадры) : 0.368
    Размер потока : 120 Мбайт (91%)
    Библиотека кодирования : XviD 1.2.1 (UTC 2008-12-04)
    Аудио
    Идентификатор : 1
    Формат : MPEG Audio
    Версия формата : Version 1
    Профиль формата : Layer 3
    Идентификатор кодека : 55
    Идентификатор кодека/Подсказка : MP3
    Продолжительность : 4 м. 48 с.
    Вид битрейта : Постоянный
    Битрейт : 320 Кбит/сек
    Каналы : 2 канала
    Частота : 48, 0 КГц
    Метод сжатия : С потерями
    Размер потока : 11, 0 Мбайт (8%)
    Выравнивание : Соединение по промежуткам
    Продолжительность промежутка : 40 мс. (1, 00 видеокадр)
    Время предзагрузки промежутка : 504 мс.
    Библиотека кодирования : LAME3.99r
    Настройки программы : -m s -V 4 -q 2 -lowpass 20.5
    Общее
    Полное имя : E: ФильмыклипыПесня годаПесня года 83-91 - Лучшее от ALEXnROCK avi 125 Электроклуб - Ты замуж за него не выходи.avi
    Формат : AVI
    Формат/Информация : Audio Video Interleave
    Размер файла : 98, 7 Мбайт
    Продолжительность : 3 м. 40 с.
    Общий поток : 3754 Кбит/сек
    Программа кодирования : VirtualDubMod 1.5.10.2 (build 2540/release)
    Библиотека кодирования : VirtualDubMod build 2540/release
    Видео
    Идентификатор : 0
    Формат : MPEG-4 Visual
    Профиль формата : Advanced Simple@L5
    Настройки формата : BVOP2
    Параметр BVOP формата : 2
    Параметр QPel формата : Нет
    Параметр GMC формата : Без точки перехода
    Параметр матрицы формата : Default (H.263)
    Режим смешивания : Сжатый битовый поток
    Идентификатор кодека : XVID
    Идентификатор кодека/Подсказка : XviD
    Продолжительность : 3 м. 40 с.
    Битрейт : 3424 Кбит/сек
    Ширина : 720 пикселей
    Высота : 536 пикселей
    Соотношение сторон : 4: 3
    Частота кадров : 25, 000 кадров/сек
    Цветовое пространство : YUV
    Субдискретизация насыщенности : 4: 2: 0
    Битовая глубина : 8 бит
    Тип развёртки : Прогрессивная
    Метод сжатия : С потерями
    Бит/(Пиксели*Кадры) : 0.355
    Размер потока : 90, 0 Мбайт (91%)
    Библиотека кодирования : XviD 1.2.1 (UTC 2008-12-04)
    Аудио
    Идентификатор : 1
    Формат : MPEG Audio
    Версия формата : Version 1
    Профиль формата : Layer 3
    Идентификатор кодека : 55
    Идентификатор кодека/Подсказка : MP3
    Продолжительность : 3 м. 40 с.
    Вид битрейта : Постоянный
    Битрейт : 320 Кбит/сек
    Каналы : 2 канала
    Частота : 48, 0 КГц
    Метод сжатия : С потерями
    Размер потока : 8, 41 Мбайт (9%)
    Выравнивание : Соединение по промежуткам
    Продолжительность промежутка : 40 мс. (1, 00 видеокадр)
    Время предзагрузки промежутка : 504 мс.
    Библиотека кодирования : LAME3.99r
    Настройки программы : -m s -V 4 -q 2 -lowpass 20.5
    Общее
    Полное имя : E: ФильмыклипыПесня годаПесня года 83-91 - Лучшее от ALEXnROCK avi 126 Юрий Лоза - Плот.avi
    Формат : AVI
    Формат/Информация : Audio Video Interleave
    Размер файла : 142 Мбайт
    Продолжительность : 5 м. 16 с.
    Общий поток : 3772 Кбит/сек
    Программа кодирования : VirtualDubMod 1.5.10.2 (build 2540/release)
    Библиотека кодирования : VirtualDubMod build 2540/release
    Видео
    Идентификатор : 0
    Формат : MPEG-4 Visual
    Профиль формата : Advanced Simple@L5
    Настройки формата : BVOP2
    Параметр BVOP формата : 2
    Параметр QPel формата : Нет
    Параметр GMC формата : Без точки перехода
    Параметр матрицы формата : Default (H.263)
    Режим смешивания : Сжатый битовый поток
    Идентификатор кодека : XVID
    Идентификатор кодека/Подсказка : XviD
    Продолжительность : 5 м. 16 с.
    Битрейт : 3442 Кбит/сек
    Ширина : 720 пикселей
    Высота : 536 пикселей
    Соотношение сторон : 4: 3
    Частота кадров : 25, 000 кадров/сек
    Цветовое пространство : YUV
    Субдискретизация насыщенности : 4: 2: 0
    Битовая глубина : 8 бит
    Тип развёртки : Прогрессивная
    Метод сжатия : С потерями
    Бит/(Пиксели*Кадры) : 0.357
    Размер потока : 130 Мбайт (91%)
    Библиотека кодирования : XviD 1.2.1 (UTC 2008-12-04)
    Аудио
    Идентификатор : 1
    Формат : MPEG Audio
    Версия формата : Version 1
    Профиль формата : Layer 3
    Идентификатор кодека : 55
    Идентификатор кодека/Подсказка : MP3
    Продолжительность : 5 м. 16 с.
    Вид битрейта : Постоянный
    Битрейт : 320 Кбит/сек
    Каналы : 2 канала
    Частота : 48, 0 КГц
    Метод сжатия : С потерями
    Размер потока : 12, 1 Мбайт (8%)
    Выравнивание : Соединение по промежуткам
    Продолжительность промежутка : 40 мс. (1, 00 видеокадр)
    Время предзагрузки промежутка : 504 мс.
    Библиотека кодирования : LAME3.99r
    Настройки программы : -m s -V 4 -q 2 -lowpass 20.5
    Общее
    Полное имя : E: ФильмыклипыПесня годаПесня года 83-91 - Лучшее от ALEXnROCK avi 127 Женя Белоусов - Золотые купола.avi
    Формат : AVI
    Формат/Информация : Audio Video Interleave
    Размер файла : 145 Мбайт
    Продолжительность : 5 м. 20 с.
    Общий поток : 3808 Кбит/сек
    Программа кодирования : VirtualDubMod 1.5.10.2 (build 2540/release)
    Библиотека кодирования : VirtualDubMod build 2540/release
    Видео
    Идентификатор : 0
    Формат : MPEG-4 Visual
    Профиль формата : Advanced Simple@L5
    Настройки формата : BVOP2
    Параметр BVOP формата : 2
    Параметр QPel формата : Нет
    Параметр GMC формата : Без точки перехода
    Параметр матрицы формата : Default (H.263)
    Режим смешивания : Сжатый битовый поток
    Идентификатор кодека : XVID
    Идентификатор кодека/Подсказка : XviD
    Продолжительность : 5 м. 20 с.
    Битрейт : 3478 Кбит/сек
    Ширина : 720 пикселей
    Высота : 536 пикселей
    Соотношение сторон : 4: 3
    Частота кадров : 25, 000 кадров/сек
    Цветовое пространство : YUV
    Субдискретизация насыщенности : 4: 2: 0
    Битовая глубина : 8 бит
    Тип развёртки : Прогрессивная
    Метод сжатия : С потерями
    Бит/(Пиксели*Кадры) : 0.361
    Размер потока : 133 Мбайт (91%)
    Библиотека кодирования : XviD 1.2.1 (UTC 2008-12-04)
    Аудио
    Идентификатор : 1
    Формат : MPEG Audio
    Версия формата : Version 1
    Профиль формата : Layer 3
    Идентификатор кодека : 55
    Идентификатор кодека/Подсказка : MP3
    Продолжительность : 5 м. 20 с.
    Вид битрейта : Постоянный
    Битрейт : 320 Кбит/сек
    Каналы : 2 канала
    Частота : 48, 0 КГц
    Метод сжатия : С потерями
    Размер потока : 12, 2 Мбайт (8%)
    Выравнивание : Соединение по промежуткам
    Продолжительность промежутка : 40 мс. (1, 00 видеокадр)
    Время предзагрузки промежутка : 504 мс.
    Библиотека кодирования : LAME3.99r
    Настройки программы : -m s -V 4 -q 2 -lowpass 20.5
    Общее
    Полное имя : E: ФильмыклипыПесня годаПесня года 83-91 - Лучшее от ALEXnROCK avi 128 Алла Пугачева - Без меня.avi
    Формат : AVI
    Формат/Информация : Audio Video Interleave
    Размер файла : 176 Мбайт
    Продолжительность : 4 м. 32 с.
    Общий поток : 5429 Кбит/сек
    Программа кодирования : VirtualDubMod 1.5.10.2 (build 2540/release)
    Библиотека кодирования : VirtualDubMod build 2540/release
    Видео
    Идентификатор : 0
    Формат : MPEG-4 Visual
    Профиль формата : Advanced Simple@L5
    Настройки формата : BVOP2
    Параметр BVOP формата : 2
    Параметр QPel формата : Нет
    Параметр GMC формата : Без точки перехода
    Параметр матрицы формата : Default (H.263)
    Режим смешивания : Сжатый битовый поток
    Идентификатор кодека : XVID
    Идентификатор кодека/Подсказка : XviD
    Продолжительность : 4 м. 32 с.
    Битрейт : 5099 Кбит/сек
    Ширина : 720 пикселей
    Высота : 528 пикселей
    Соотношение сторон : 4: 3
    Частота кадров : 25, 000 кадров/сек
    Цветовое пространство : YUV
    Субдискретизация насыщенности : 4: 2: 0
    Битовая глубина : 8 бит
    Тип развёртки : Прогрессивная
    Метод сжатия : С потерями
    Бит/(Пиксели*Кадры) : 0.536
    Размер потока : 165 Мбайт (94%)
    Библиотека кодирования : XviD 1.2.1 (UTC 2008-12-04)
    Аудио
    Идентификатор : 1
    Формат : MPEG Audio
    Версия формата : Version 1
    Профиль формата : Layer 3
    Идентификатор кодека : 55
    Идентификатор кодека/Подсказка : MP3
    Продолжительность : 4 м. 32 с.
    Вид битрейта : Постоянный
    Битрейт : 320 Кбит/сек
    Каналы : 2 канала
    Частота : 48, 0 КГц
    Метод сжатия : С потерями
    Размер потока : 10, 4 Мбайт (6%)
    Выравнивание : Соединение по промежуткам
    Продолжительность промежутка : 40 мс. (1, 00 видеокадр)
    Время предзагрузки промежутка : 504 мс.
    Библиотека кодирования : LAME3.99r
    Настройки программы : -m s -V 4 -q 2 -lowpass 20.5
    Общее
    Полное имя : E: ФильмыклипыПесня годаПесня года 83-91 - Лучшее от ALEXnROCK avi 129 Веселые ребята - Безнадега.avi
    Формат : AVI
    Формат/Информация : Audio Video Interleave
    Размер файла : 97, 7 Мбайт
    Продолжительность : 3 м. 33 с.
    Общий поток : 3830 Кбит/сек
    Программа кодирования : VirtualDubMod 1.5.10.2 (build 2540/release)
    Библиотека кодирования : VirtualDubMod build 2540/release
    Видео
    Идентификатор : 0
    Формат : MPEG-4 Visual
    Профиль формата : Advanced Simple@L5
    Настройки формата : BVOP2
    Параметр BVOP формата : 2
    Параметр QPel формата : Нет
    Параметр GMC формата : Без точки перехода
    Параметр матрицы формата : Default (H.263)
    Режим смешивания : Сжатый битовый поток
    Идентификатор кодека : XVID
    Идентификатор кодека/Подсказка : XviD
    Продолжительность : 3 м. 33 с.
    Битрейт : 3500 Кбит/сек
    Ширина : 720 пикселей
    Высота : 536 пикселей
    Соотношение сторон : 4: 3
    Частота кадров : 25, 000 кадров/сек
    Цветовое пространство : YUV
    Субдискретизация насыщенности : 4: 2: 0
    Битовая глубина : 8 бит
    Тип развёртки : Прогрессивная
    Метод сжатия : С потерями
    Бит/(Пиксели*Кадры) : 0.363
    Размер потока : 89, 2 Мбайт (91%)
    Библиотека кодирования : XviD 1.2.1 (UTC 2008-12-04)
    Аудио
    Идентификатор : 1
    Формат : MPEG Audio
    Версия формата : Version 1
    Профиль формата : Layer 3
    Идентификатор кодека : 55
    Идентификатор кодека/Подсказка : MP3
    Продолжительность : 3 м. 33 с.
    Вид битрейта : Постоянный
    Битрейт : 320 Кбит/сек
    Каналы : 2 канала
    Частота : 48, 0 КГц
    Метод сжатия : С потерями
    Размер потока : 8, 16 Мбайт (8%)
    Выравнивание : Соединение по промежуткам
    Продолжительность промежутка : 40 мс. (1, 00 видеокадр)
    Время предзагрузки промежутка : 504 мс.
    Библиотека кодирования : LAME3.99r
    Настройки программы : -m s -V 4 -q 2 -lowpass 20.5
    Общее
    Полное имя : E: ФильмыклипыПесня годаПесня года 83-91 - Лучшее от ALEXnROCK avi 130 Александр Барыкин - Букет.avi
    Формат : AVI
    Формат/Информация : Audio Video Interleave
    Размер файла : 101 Мбайт
    Продолжительность : 3 м. 40 с.
    Общий поток : 3830 Кбит/сек
    Программа кодирования : VirtualDubMod 1.5.10.2 (build 2540/release)
    Библиотека кодирования : VirtualDubMod build 2540/release
    Видео
    Идентификатор : 0
    Формат : MPEG-4 Visual
    Профиль формата : Advanced Simple@L5
    Настройки формата : BVOP2
    Параметр BVOP формата : 2
    Параметр QPel формата : Нет
    Параметр GMC формата : Без точки перехода
    Параметр матрицы формата : Default (H.263)
    Режим смешивания : Сжатый битовый поток
    Идентификатор кодека : XVID
    Идентификатор кодека/Подсказка : XviD
    Продолжительность : 3 м. 40 с.
    Битрейт : 3500 Кбит/сек
    Ширина : 720 пикселей
    Высота : 528 пикселей
    Соотношение сторон : 4: 3
    Частота кадров : 25, 000 кадров/сек
    Цветовое пространство : YUV
    Субдискретизация насыщенности : 4: 2: 0
    Битовая глубина : 8 бит
    Тип развёртки : Прогрессивная
    Метод сжатия : С потерями
    Бит/(Пиксели*Кадры) : 0.368
    Размер потока : 92, 1 Мбайт (91%)
    Библиотека кодирования : XviD 1.2.1 (UTC 2008-12-04)
    Аудио
    Идентификатор : 1
    Формат : MPEG Audio
    Версия формата : Version 1
    Профиль формата : Layer 3
    Идентификатор кодека : 55
    Идентификатор кодека/Подсказка : MP3
    Продолжительность : 3 м. 40 с.
    Вид битрейта : Постоянный
    Битрейт : 320 Кбит/сек
    Каналы : 2 канала
    Частота : 48, 0 КГц
    Метод сжатия : С потерями
    Размер потока : 8, 42 Мбайт (8%)
    Выравнивание : Соединение по промежуткам
    Продолжительность промежутка : 40 мс. (1, 00 видеокадр)
    Время предзагрузки промежутка : 504 мс.
    Библиотека кодирования : LAME3.99r
    Настройки программы : -m s -V 4 -q 2 -lowpass 20.5
    Общее
    Полное имя : E: ФильмыклипыПесня годаПесня года 83-91 - Лучшее от ALEXnROCK avi 131 София Ротару - Караван любви.avi
    Формат : AVI
    Формат/Информация : Audio Video Interleave
    Размер файла : 137 Мбайт
    Продолжительность : 4 м. 59 с.
    Общий поток : 3830 Кбит/сек
    Программа кодирования : VirtualDubMod 1.5.10.2 (build 2540/release)
    Библиотека кодирования : VirtualDubMod build 2540/release
    Видео
    Идентификатор : 0
    Формат : MPEG-4 Visual
    Профиль формата : Advanced Simple@L5
    Настройки формата : BVOP2
    Параметр BVOP формата : 2
    Параметр QPel формата : Нет
    Параметр GMC формата : Без точки перехода
    Параметр матрицы формата : Default (H.263)
    Режим смешивания : Сжатый бит
    Рейтинг →
     (голосов: 1, оценка 4/5, голосовать можно 1 раз )

    Другие торренты по теме:

  • Песня года 2014. Часть №1 (2015.01.01) DVB скачать через торрент бесплатно
  • Песня года 2014. Части №1-2 (2015.01.02) SATRip скачать через торрент бесплатно
  • Песня года 2014. Часть №2 (2015.01.02) DVB скачать через торрент бесплатно
  • VA - Золотая Песня Года (2015) [MP3|128-320 кб / с]<Pop> скачать через торрент бесплатно
  • Песня года 2015 (2016.01.01) SATRip (часть 1 из 2) скачать через торрент бесплатно
  • Песня года 2015 (2016.01.01-02) HDTV [1080i-LQ] (части 1-2 из 2) скачать через торрент бесплатно
  • VA - Зимний марафон № 225: Live, Песня Года (2015) WEBRip [H.264 / 1080p-LQ]
  • Песня года 2016 (2017.01.01-02) SATRip (части 1-2 из 2)


    • Комментарии (0):

      Информация

      Информация

        Посетители, находящиеся в группе Гости, не могут оставлять комментарии в данной новости.

        ↓ Меню




        ↓ Опрос

        Вы добавили сайт в закладки?
        Да
        Нет


        Популярное