.
Авторизация | Регистрация

bitok.xyz

» » Мой голубой разум / Blue My Mind (2017) WEB-DLRip [H.264 / 720p-LQ] [MVO, AD] торрент скачать бесплатно


    Мой голубой разум / Blue My Mind (2017) WEB-DLRip [H.264 / 720p-LQ] [MVO, AD] торрент скачать бесплатно

    Дата: 20-11-2018, 05:00 | .torrent скачали: 6

    Мой голубой разум / Blue My Mind (2017) WEB-DLRip [H.264 / 720p-LQ] [MVO, AD]Производство: Швейцария | Tellfilm, Zürcher Hochschule der Künste
    Жанр: Фэнтези, драма
    Режиссер: Lisa Brühlmann

    Актеры
    Luna Wedler, Zoë Pastelle Holthuizen, Регула Граувилер, Georg Scharegg, Лу Хальтиннер, Yael Meier, David Oberholzer, Una Rusca, Timon Kiefer, Benjamin Dangel

    Описание

    В ходе онтогенеза, тело 15-летней Мии проходит через колоссальные метаморфозы. Она в корне меняется, и несмотря на отчаянные попытки прекратить этот процесс, вскоре ей придется смириться и признать то, что природа намного сильнее ее самой.

    Дата мировой премьеры: 24 сентября 2017
    Продолжительность: 01: 37: 20
    Качество видео: WEB-DLRip
    Перевод: Двуголосый закадровый (LakeFilms)
    Субтитры: Отсутствуют
    Реклама: Аудио и текстовые вставки
    Видео: AVC/H.264, 1280х534 (2.40: 1), ~3486 kbps, 25.00 fps
    Аудио: AC3, 2 ch, 48.0 kHz, 192 kbps CBR
    Присутствует ненормативная лексика

    General
    Unique ID : 325010567942952281854619549281362711506 (0xF482C22D578AB033BC65B19FE1B113D2)
    Complete name : D: Blue_My_Mind_2018_720p_WEB-DL_LakeFilms.mkv
    Format : Matroska
    Format version : Version 4
    File size : 2.50 GiB
    Duration : 1 h 37 min
    Overall bit rate : 3 680 kb/s
    Encoded date : UTC 2018-11-19 04: 45: 28
    Writing application : mkvmerge v28.0.0 (\'Voice In My Head\') 64-bit
    Writing library : libebml v1.3.6 + libmatroska v1.4.9
    Video
    ID : 1
    Format : AVC
    Format/Info : Advanced Video Codec
    Format profile : Baseline@L3.1
    Format settings : 1 Ref Frames
    Format settings, CABAC : No
    Format settings, ReFrames : 1 frame
    Codec ID : V_MPEG4/ISO/AVC
    Duration : 1 h 37 min
    Bit rate : 3 486 kb/s
    Width : 1 280 pixels
    Height : 534 pixels
    Display aspect ratio : 2.40: 1
    Frame rate mode : Constant
    Frame rate : 25.000 FPS
    Color space : YUV
    Chroma subsampling : 4: 2: 0
    Bit depth : 8 bits
    Scan type : Progressive
    Bits/(Pixel*Frame) : 0.204
    Stream size : 2.37 GiB (95%)
    Language : English
    Default : Yes
    Forced : No
    Color range : Limited
    Color primaries : BT.709
    Transfer characteristics : BT.709
    Matrix coefficients : BT.709
    Audio
    ID : 2
    Format : AC-3
    Format/Info : Audio Coding 3
    Commercial name : Dolby Digital
    Codec ID : A_AC3
    Duration : 1 h 37 min
    Bit rate mode : Constant
    Bit rate : 192 kb/s
    Channel(s) : 2 channels
    Channel layout : L R
    Sampling rate : 48.0 kHz
    Frame rate : 31.250 FPS (1536 SPF)
    Bit depth : 16 bits
    Compression mode : Lossy
    Stream size : 134 MiB (5%)
    Title : LakeFilms
    Language : Russian
    Service kind : Complete Main
    Default : Yes
    Forced : No

    Скриншоты для ознакомления



    Все одноименные релизы в Клубе
    Время раздачи: 24/7 (до появления первых 3-5 скачавших)


    Мой голубой разум/Blue My Mind (2017) WEB-DLRip [H.264/720p-LQ] [MVO, AD]
    Рейтинг →
     (голосов: 1, оценка 3/5, голосовать можно 1 раз )

    Другие торренты по теме:

  • Н.С. Костарев | Голубой Экспресс (1960) [PDF]
  • Aoki Hagane no Arpeggio: Ars Nova / Arpeggio of Blue Steel / Арпеджио голубой стали [2013, TV, 12 ep] BDRip Hi10p 720p Raw+Rus
  • Е. Рябова (сост.) | Аокумо - Голубой паук. 50 японских историй о чудесах и привидениях (2002) [FB2] скачать через торрент бесплатно
  • Aoki Ryuusei SPT Layzner / Blue Meteor SPT Layzner / Голубой метеор СПТ Лейзнер [1985, TV, 38ep] DVDrip 480p Raw скачать через торрент бесплатно
  • Голубой огонек - «Новогодняя ярмарка» (1964) DVDRip [H.264] [hand made colored] скачать через торрент бесплатно
  • Голубой огонек 1963года (2005) DVDRip [H.264] [hand made colored] скачать через торрент бесплатно
  • Новогодний голубой огонек "Самая высокая..." (2 части) (1967) DVDRip [H.264] [hand made colored / full colourization] скачать через торрент бесплатно
  • Голубой огонек - «Новогодняя ярмарка» Часть 1 (1964) DVDRip [H.264] [hand made colored] скачать через торрент бесплатно


    • Комментарии (0):

      Информация

      Информация

        Посетители, находящиеся в группе Гости, не могут оставлять комментарии в данной новости.

        ↓ Меню




        ↓ Опрос

        Вы добавили сайт в закладки?
        Да
        Нет


        Популярное