.
Авторизация | Регистрация

bitok.xyz

» » Bon Jovi - Live in Japan (1985) от ALEXnROCK WEBRip торрент скачать бесплатно


    Bon Jovi - Live in Japan (1985) от ALEXnROCK WEBRip торрент скачать бесплатно

    Дата: 8-12-2018, 05:00 | .torrent скачали: 7

    Bon Jovi - Live in Japan (1985) от ALEXnROCK WEBRipЖанр: Rock
    Год выпуска: 1985

    Описание

    Крутейший концерт легендарных рокеров. Рип с фирменного двд. Ремастеринг видео и звука. CD звук нашел и поставил только на 4 песни, но и оригинальная доржка неплохая. Да пребудет с нами качественная музыка!. Все лучшее для вас. ALEXnROCK
    Продолжительность: 01: 20: 49
    Качество: WEBRip
    Видео : XviD, 720x536, 3500 Kbps
    Аудио : MP3, 2 ch, 320 Kbps
    Треклист:
    01. Tokyo Road
    02. Breakout
    03. Only Lonely
    04. She Don\'t Know Me
    05. Shot Through The Heart
    06. Silent Night
    07. Hardest Part Is The Night
    08. In And Out Of Love
    09. Runaway
    10. Burning For Love
    11. Get Ready

    Общее
    Полное имя : Bon Jovi - Live in Japan 85 ALEXnROCK.avi
    Формат : AVI
    Формат/Информация : Audio Video Interleave
    Профиль формата : OpenDML
    Размер файла : 2, 16 Гбайт
    Продолжительность : 1 ч. 20 м.
    Общий поток : 3835 Кбит/сек
    Программа кодирования : VirtualDubMod 1.5.10.2 (build 2540/release)
    Библиотека кодирования : VirtualDubMod build 2540/release
    Видео
    Идентификатор : 0
    Формат : MPEG-4 Visual
    Профиль формата : Advanced Simple@L5
    Настройки формата : BVOP2
    Параметр BVOP формата : 2
    Параметр QPel формата : Нет
    Параметр GMC формата : Без точки перехода
    Параметр матрицы формата : Default (H.263)
    Режим смешивания : Сжатый битовый поток
    Идентификатор кодека : XVID
    Идентификатор кодека/Подсказка : XviD
    Продолжительность : 1 ч. 20 м.
    Битрейт : 3500 Кбит/сек
    Ширина : 720 пикселей
    Высота : 536 пикселей
    Соотношение сторон : 4: 3
    Частота кадров : 30, 000 кадров/сек
    Цветовое пространство : YUV
    Субдискретизация насыщенности : 4: 2: 0
    Битовая глубина : 8 бит
    Тип развёртки : Прогрессивная
    Метод сжатия : С потерями
    Бит/(Пиксели*Кадры) : 0.302
    Размер потока : 1, 97 Гбайт (91%)
    Библиотека кодирования : XviD 1.2.1 (UTC 2008-12-04)
    Аудио
    Идентификатор : 1
    Формат : MPEG Audio
    Версия формата : Version 1
    Профиль формата : Layer 3
    Идентификатор кодека : 55
    Идентификатор кодека/Подсказка : MP3
    Продолжительность : 1 ч. 20 м.
    Вид битрейта : Постоянный
    Битрейт : 320 Кбит/сек
    Каналы : 2 канала
    Частота : 48, 0 КГц
    Метод сжатия : С потерями
    Размер потока : 185 Мбайт (8%)
    Выравнивание : Соединение по промежуткам
    Продолжительность промежутка : 33 мс. (1, 00 видеокадр)
    Время предзагрузки промежутка : 504 мс.
    Библиотека кодирования : LAME3.99r
    Настройки программы : -m s -V 4 -q 2 -lowpass 20.5

    Скриншоты для ознакомления



    Все одноименные релизы в Клубе
    Время раздачи: 24/7 (до появления первых 3-5 скачавших)


    Bon Jovi - Live in Japan (1985) от ALEXnROCK WEBRip
    Рейтинг →
     (голосов: 1, оценка 4/5, голосовать можно 1 раз )

    Другие торренты по теме:

  • Bon Jovi - Live From Tokyo Dome (14.01.2008) HDTVRip [MPEG-2 / 1080i] скачать через торрент бесплатно
  • Bon Jovi - Live At Nokia Theatre (2005) HDTVRip [H264 / 1080i] скачать через торрент бесплатно
  • Bon Jovi - Live in Japan (1985) от ALEXnROCK WEBRip [H.264 / 1080p-LQ][upscale]
  • Bon Jovi - Tokyo Road Live In Japan (1985) VHSRip скачать через торрент бесплатно
  • Bon Jovi - Yokohama Stadium Japan Live (1996) VHSRip скачать через торрент бесплатно
  • Bon Jovi - This House Is Not For Sale (Live From The London Palladium) (2016) [MP3|320 Kbps] <Arena Rock, Hard Rock>


    • Комментарии (0):

      Информация

      Информация

        Посетители, находящиеся в группе Гости, не могут оставлять комментарии в данной новости.

        ↓ Меню




        ↓ Опрос

        Вы добавили сайт в закладки?
        Да
        Нет


        Популярное