.
Авторизация | Регистрация
bitok.xyz
» » Хищник / The Predator (2018) BDRip [H.264 / 1080p] [hand made 16:9] торрент скачать бесплатно


    Хищник / The Predator (2018) BDRip [H.264 / 1080p] [hand made 16:9] торрент скачать бесплатно

    Дата: 12-12-2018, 05:00 | .torrent скачали: 3

    Хищник / The Predator (2018) BDRip [H.264 / 1080p] [hand made 16:9]Производство: США, Канада/Twentieth Century Fox
    Жанр: Ужасы, Фантастика, Боевик, Приключения
    Режиссер: Шейн Блэк

    Актеры
    Бойд Холбрук, Треванте Роудс, Джейкоб Трамбле, Кигэн-Майкл Ки, Оливия Манн, Стерлинг К. Браун, Томас Джейн, Элфи Оуэн-Аллен, Августо Агилера, Джейк Бьюзи

    Описание

    Главный герой, бывший морпех, обнаруживает злобную инопланетную расу на Земле, но никто не верит ему, что эти твари существуют. Его сын-аутист, которого все обижают в школе, становится ключевой фигурой в схватке с Хищниками, поскольку мальчик умеет невероятно быстро учить языки и, судя по всему, сможет понять пришельцев.

    Возраст: 18+ (зрителям, достигшим 18 лет. запрещено для детей)
    Рейтинг MPAA: R (лицам до 17 лет обязательно присутствие взрослого)
    Дата мировой премьеры: 7 сентября 2018
    Дата российской премьеры: 13 сентября 2018, Двадцатый Век Фокс СНГ
    Дата выхода DVD/Blu-ray релиза: 7 декабря 2018, Двадцатый Век Фокс СНГ
    Продолжительность: 01: 46: 56
    Качество видео: BDRip
    Перевод: Дублированный (iTunes)
    Субтитры: русские (форс., полные), английские (полные)
    Видео: AVC/H.264, 1920x1080, ~11 Mbps
    Аудио #1: AC3, 6 ch, 384 Kbps - Русский
    Аудио #2: DTS, 6 ch, 768 Kbps - Английский
    x264 info: frame I: 1295 Avg QP: 16.47 size: 225591
    x264 info: frame P: 42899 Avg QP: 18.96 size: 100752
    x264 info: frame B: 109656 Avg QP: 20.97 size: 38349
    Unique ID : 236544956554418730497099580663781395763 (0xB1F4E6C8D905677495DEAFB0CA940D33)
    Complete name : D: TempХищник 2018 FS 1080p.mkv
    Format : Matroska
    Format version : Version 4/Version 2
    File size : 9.08 GiB
    Duration : 1h 46mn
    Overall bit rate : 12.2 Mbps
    Encoded date : UTC 2018-12-11 00: 20: 32
    Writing application : mkvmerge v9.8.0 (\'Kuglblids\') 64bit
    Writing library : Lavf57.71.100
    Video
    ID : 1
    Format : AVC
    Format/Info : Advanced Video Codec
    Format profile : High@L4.1
    Format settings, CABAC : Yes
    Format settings, ReFrames : 4 frames
    Codec ID : V_MPEG4/ISO/AVC
    Duration : 1h 46mn
    Bit rate : 11.0 Mbps
    Width : 1 920 pixels
    Height : 1 080 pixels
    Display aspect ratio : 16: 9
    Frame rate mode : Constant
    Frame rate : 23.976 fps
    Color space : YUV
    Chroma subsampling : 4: 2: 0
    Bit depth : 8 bits
    Scan type : Progressive
    Bits/(Pixel*Frame) : 0.221
    Stream size : 8.04 GiB (89%)
    Writing library : x264 core 157 r2935M 545de2f
    Encoding settings : cabac=1/ref=4/deblock=1: -3: -3/analyse=0x3: 0x113/me=umh/subme=10/psy=1/psy_rd=1.05: 0.10/mixed_ref=1/me_range=24/chroma_me=1/trellis=2/8x8dct=1/cqm=0/deadzone=21, 11/fast_pskip=0/chroma_qp_offset=-3/threads=5/lookahead_threads=1/sliced_threads=0/nr=0/decimate=0/interlaced=0/bluray_compat=0/constrained_intra=0/bframes=6/b_pyramid=2/b_adapt=2/b_bias=0/direct=1/weightb=1/open_gop=0/weightp=2/keyint=240/keyint_min=24/scenecut=40/intra_refresh=0/rc=2pass/mbtree=0/bitrate=11000/ratetol=1.0/qcomp=0.70/qpmin=3/qpmax=69/qpstep=4/cplxblur=20.0/qblur=0.5/ip_ratio=1.40/pb_ratio=1.30/aq=2: 1.00
    Default : Yes
    Forced : No
    Audio #1
    ID : 2
    Format : AC-3
    Format/Info : Audio Coding 3
    Mode extension : CM (complete main)
    Format settings, Endianness : Big
    Codec ID : A_AC3
    Duration : 1h 46mn
    Bit rate mode : Constant
    Bit rate : 384 Kbps
    Channel(s) : 6 channels
    Channel positions : Front: L C R, Side: L R, LFE
    Sampling rate : 48.0 KHz
    Bit depth : 16 bits
    Compression mode : Lossy
    Stream size : 294 MiB (3%)
    Language : Russian
    Default : Yes
    Forced : No
    Audio #2
    ID : 3
    Format : DTS
    Format/Info : Digital Theater Systems
    Mode : 16
    Format settings, Endianness : Big
    Codec ID : A_DTS
    Duration : 1h 46mn
    Bit rate mode : Constant
    Bit rate : 768 Kbps
    Channel(s) : 6 channels
    Channel positions : Front: L C R, Side: L R, LFE
    Sampling rate : 48.0 KHz
    Bit depth : 16 bits
    Compression mode : Lossy
    Stream size : 587 MiB (6%)
    Language : English
    Default : No
    Forced : No
    Text #1
    ID : 4
    Format : UTF-8
    Codec ID : S_TEXT/UTF8
    Codec ID/Info : UTF-8 Plain Text
    Language : Russian
    Default : Yes
    Forced : No
    Text #2
    ID : 5
    Format : UTF-8
    Codec ID : S_TEXT/UTF8
    Codec ID/Info : UTF-8 Plain Text
    Language : Russian
    Default : No
    Forced : No
    Text #3
    ID : 6
    Format : UTF-8
    Codec ID : S_TEXT/UTF8
    Codec ID/Info : UTF-8 Plain Text
    Language : English
    Default : No
    Forced : No

    Скриншоты для ознакомления



    Все одноименные релизы в Клубе
    Время раздачи: 24/7 (до появления первых 3-5 скачавших)

    Хищник/The Predator (2018) BDRip [H.264/1080p] [hand made 16:9]
    Рейтинг →
     (голосов: 1, оценка 3/5, голосовать можно 1 раз )

    Другие торренты по теме:

  • Хищник / Predator (1987) BDRip [720p] [hand made 60fps] скачать через торрент бесплатно
  • Хищник / Predator (1987) BDRip [H.264 / 1080p] скачать через торрент бесплатно
  • Хищник / Predator (1987) BDRemux [2D / 3D] [H.264 / 1080p] скачать через торрент бесплатно
  • Хищник / Predator (1987) BDRip [H.265 / 1080p-LQ]
  • Хищник / Predator (1987) BDRip [H.265 / 1080p]
  • Хищник / Predator (1987) BDRip [H.264 / 1080p-LQ] [Ultimate Hunter Edition]
  • Хищник / Predator (1987) [Ultimate Hunter Edition] BDRip [H.265 / 1080p-LQ] [10-bit]
  • Хищник / Predator (1987) BDRip [H.264 / 1080p-LQ]


    • Комментарии (0):

      Информация

      Информация

        Посетители, находящиеся в группе Гости, не могут оставлять комментарии в данной новости.

        ↓ Меню




        ↓ Опрос

        Вы добавили сайт в закладки?
        Да
        Нет


        Популярное