.
Авторизация | Регистрация

bitok.xyz

» » Мстители: Война бесконечности / Avengers: Infinity War (2018) BDRip [H.265 / 1080p-LQ] [10-bit] [Hybrid] торрент скачать бесплатно


    Мстители: Война бесконечности / Avengers: Infinity War (2018) BDRip [H.265 / 1080p-LQ] [10-bit] [Hybrid] торрент скачать бесплатно

    Дата: 8-01-2019, 05:00 | .torrent скачали: 1

    Мстители: Война бесконечности / Avengers: Infinity War (2018) BDRip [H.265 / 1080p-LQ] [10-bit] [Hybrid]Производство: США/Marvel Studios
    Жанр: Фантастика, Боевик, Приключения
    Режиссер: Энтони Руссо, Джо Руссо

    Актеры
    Роберт Дауни мл., Крис Хемсворт, Марк Руффало, Крис Эванс, Скарлетт Йоханссон, Дон Чидл, Бенедикт Камбербэтч, Том Холланд (II), Чэдвик Боузмэн, Зои Салдана

    Описание

    Пока Мстители и их союзники продолжают защищать мир от различных опасностей, с которыми не смог бы справиться один супергерой, новая угроза возникает из космоса: Танос. Межгалактический тиран преследует цель собрать все шесть Камней Бесконечности — артефакты невероятной силы, с помощью которых можно менять реальность по своему желанию. Всё, с чем Мстители сталкивались ранее, вело к этому моменту — судьба Земли никогда ещё не была столь неопределённой.

    Возраст: 16+ (зрителям, достигшим 16 лет)
    Рейтинг MPAA: PG-13 (детям до 13 лет просмотр нежелателен)
    Релиз от: M@kSIMus
    Продолжительность: 02: 29: 21
    Качество видео: BDRip
    Перевод: Дублированный (Лицензия)
    Субтитры: Русские (вшитые форсированные)
    Видео: HEVC/H.265, 1920x1080, ~5635 Kbps
    Аудио: AC3, 6 ch, 640 Kbps | Русский
    Аудио: AC3, 6 ch, 448 Kbps | Английский
    Общее
    Уникальный идентификатор : 278001694065258389918269508068119867635 (0xD1252DC0885FD5590B39D8752C1AF0F3)
    Полное имя : Мстители - Война бесконечности (2018) Open Matte Hybrid 1080p HEVC 10 bit.mkv
    Формат : Matroska
    Версия формата : Version 4/Version 2
    Размер файла : 7, 02 Гбайт
    Продолжительность : 2 ч. 29 м.
    Общий поток : 6725 Кбит/сек
    Название фильма : Rip_by_M@kSIMus
    Дата кодирования : UTC 2019-01-02 17: 40: 26
    Программа кодирования : mkvmerge v29.0.0 (\'Like It Or Not\') 64-bit
    Библиотека кодирования : libebml v1.3.6 + libmatroska v1.4.9
    Обложка : Yes
    Attachments : cover.jpg
    Видео
    Идентификатор : 1
    Формат : HEVC
    Формат/Информация : High Efficiency Video Coding
    Профиль формата : Main10@L4.1@High
    Идентификатор кодека : V_MPEGH/ISO/HEVC
    Продолжительность : 2 ч. 29 м.
    Битрейт : 5635 Кбит/сек
    Ширина : 1920 пикселей
    Высота : 1080 пикселей
    Соотношение сторон : 16: 9
    Режим частоты кадров : Постоянный
    Частота кадров : 23, 976 (24000/1001) кадра/сек
    Цветовое пространство : YUV
    Субдискретизация насыщенности : 4: 2: 0
    Битовая глубина : 10 бит
    Бит/(Пиксели*Кадры) : 0.113
    Размер потока : 5, 88 Гбайт (84%)
    Библиотека кодирования : x265 2.9+9-f74003e88622: WindowsGCC 7.3.064 bit 10bit
    Настройки программы : cpuid=1049583/frame-threads=5/numa-pools=4/wpp/no-pmode/no-pme/no-psnr/no-ssim/log-level=3/input-csp=1/input-res=1920x1080/interlace=0/total-frames=0/level-idc=41/high-tier=1/uhd-bd=0/ref=4/allow-non-conformance/no-repeat-t_heads/annexb/no-aud/no-hrd/info/hash=0/no-temporal-layers/open-gop/min-keyint=24/keyint=240/gop-lookahead=0/bframes=8/b-adapt=2/b-pyramid/bframe-bias=0/rc-lookahead=40/lookahead-slices=6/scenecut=40/radl=0/no-intra-refresh/ctu=64/min-cu-size=8/no-rect/no-amp/max-tu-size=32/tu-inter-depth=1/tu-intra-depth=1/limit-tu=0/rdoq-level=0/dynamic-rd=0.00/no-ssim-rd/signhide/no-tskip/nr-intra=0/nr-inter=0/no-constrained-intra/strong-intra-smoothing/max-merge=2/limit-refs=3/no-limit-modes/me=3/subme=7/merange=57/temporal-mvp/weightp/no-weightb/no-analyze-src-pics/deblock=-3: -3/no-sao/no-sao-non-deblock/rd=3/no-early-skip/rskip/no-fast-intra/no-tskip-fast/no-cu-lossless/no-b-intra/no-splitrd-skip/rdpenalty=0/psy-rd=2.00/psy-rdoq=0.00/no-rd-refine/no-lossless/cbqpoffs=0/crqpoffs=0/rc=crf/crf=20.0/qcomp=0.75/qpstep=4/stats-write=0/stats-read=0/vbv-maxrate=50000/vbv-bufsize=50000/vbv-init=0.9/crf-max=0.0/crf-min=0.0/ipratio=1.40/pbratio=1.30/aq-mode=1/aq-strength=1.00/cutree/zone-count=0/no-strict-cbr/qg-size=32/no-rc-grain/qpmax=69/qpmin=0/no-const-vbv/sar=1/overscan=0/videoformat=5/range=0/colorprim=1/transfer=1/colormatrix=1/chromaloc=0/display-window=0/max-cll=0, 0/min-luma=0/max-luma=1023/log2-max-poc-lsb=8/vui-timing-info/vui-hrd-info/slices=1/no-opt-qp-pps/no-opt-ref-list-length-pps/no-multi-pass-opt-rps/scenecut-bias=0.05/no-opt-cu-delta-qp/no-aq-motion/no-hdr/no-hdr-opt/no-dhdr10-opt/no-idr-recovery-sei/analysis-reuse-level=5/scale-factor=0/refine-intra=0/refine-inter=0/refine-mv=0/no-limit-sao/ctu-info=0/no-lowpass-dct/refine-mv-type=0/copy-pic=1/max-ausize-factor=1.0/no-dynamic-refine/no-single-sei
    Язык : English
    Default : Да
    Forced : Нет
    Цветовой диапазон : Limited
    Основные цвета : BT.709
    Характеристики трансфера : BT.709
    Коэффициенты матрицы : BT.709
    Аудио #1
    Идентификатор : 2
    Формат : AC-3
    Формат/Информация : Audio Coding 3
    Идентификатор кодека : A_AC3
    Продолжительность : 2 ч. 29 м.
    Вид битрейта : Постоянный
    Битрейт : 640 Кбит/сек
    Каналы : 6 каналов
    Расположение каналов : Front: L C R, Side: L R, LFE
    Частота : 48, 0 КГц
    Частота кадров : 31, 250 кадров/сек (1536 SPF)
    Битовая глубина : 16 бит
    Метод сжатия : С потерями
    Размер потока : 684 Мбайт (10%)
    Заголовок : Дубляж
    Язык : Russian
    ServiceKind/String : Complete Main
    Default : Да
    Forced : Да
    Аудио #2
    Идентификатор : 3
    Формат : AC-3
    Формат/Информация : Audio Coding 3
    Идентификатор кодека : A_AC3
    Продолжительность : 2 ч. 29 м.
    Вид битрейта : Постоянный
    Битрейт : 448 Кбит/сек
    Каналы : 6 каналов
    Расположение каналов : Front: L C R, Side: L R, LFE
    Частота : 48, 0 КГц
    Частота кадров : 31, 250 кадров/сек (1536 SPF)
    Битовая глубина : 16 бит
    Метод сжатия : С потерями
    Размер потока : 479 Мбайт (7%)
    Заголовок : Оригинал
    Язык : English
    ServiceKind/String : Complete Main
    Default : Нет
    Forced : Нет
    Меню
    00: 00: 00.000 : en: 00: 00: 00.000
    00: 11: 28.730 : en: 00: 11: 28.730
    00: 18: 13.884 : en: 00: 18: 13.884
    00: 27: 23.809 : en: 00: 27: 23.809
    00: 35: 48.813 : en: 00: 35: 48.813
    00: 42: 23.541 : en: 00: 42: 23.541
    00: 54: 12.875 : en: 00: 54: 12.875
    00: 59: 36.740 : en: 00: 59: 36.740
    01: 05: 07.153 : en: 01: 05: 07.153
    01: 10: 53.666 : en: 01: 10: 53.666
    01: 17: 06.956 : en: 01: 17: 06.956
    01: 24: 14.758 : en: 01: 24: 14.758
    01: 31: 08.004 : en: 01: 31: 08.004
    01: 42: 00.406 : en: 01: 42: 00.406
    01: 45: 57.810 : en: 01: 45: 57.810
    01: 53: 04.069 : en: 01: 53: 04.069
    01: 58: 52.917 : en: 01: 58: 52.917
    02: 03: 58.181 : en: 02: 03: 58.181
    02: 11: 13.282 : en: 02: 11: 13.282
    02: 17: 31.285 : en: 02: 17: 31.285

    Скриншоты для ознакомления



    Все одноименные релизы в Клубе
    Время раздачи: 24/7 (круглосуточно)

    Мстители: Война бесконечности/Avengers: Infinity War (2018) BDRip [H.265/1080p-LQ] [10-bit] [Hybrid]
    Рейтинг →
     (голосов: 1, оценка 5/5, голосовать можно 1 раз )

    Другие торренты по теме:

  • Мстители: Война бесконечности / Avengers: Infinity War (2018) WEBRip [H.264 / 1080p] [Трейлер] [EN]
  • Мстители: Война бесконечности / Avengers: Infinity War (2018) TS [H.264 / 720p-LQ] [AD] [MVO]
  • Alan Silvestri - Мстители: Война бесконечности / Avengers: Infinity War (Deluxe Edition) (2018) [FLAC|Lossless|tracks]<Soundtrack>
  • Alan Silvestri - Мстители: Война бесконечности / Avengers: Infinity War (Deluxe Edition) (2018) [MP3|320 Kbps] <Soundtrack>
  • Мстители: Война бесконечности / Avengers: Infinity War (2018) TS Proper [H.264 / 720p] [AD]
  • Мстители: Война бесконечности / Avengers: Infinity War (2018) TS Proper [H.264]
  • Мстители: Война бесконечности / Avengers: Infinity War (2018) WEB-DLRip [H.264 / 1080p-LQ] [Line, AD]
  • Мстители: Война бесконечности / Avengers: Infinity War (2018) WEB-DL [H.264 / 1080p-LQ] [EN]


    • Комментарии (0):

      Информация

      Информация

        Посетители, находящиеся в группе Гости, не могут оставлять комментарии в данной новости.

        ↓ Меню




        ↓ Опрос

        Вы добавили сайт в закладки?
        Да
        Нет


        Популярное