.
Авторизация | Регистрация

bitok.xyz

» » Мстители: Война бесконечности / Avengers: Infinity War (2018) BDRip [H.264 / 1080p] [Hybrid] [hand made 16:9] торрент скачать бесплатно


    Мстители: Война бесконечности / Avengers: Infinity War (2018) BDRip [H.264 / 1080p] [Hybrid] [hand made 16:9] торрент скачать бесплатно

    Дата: 9-01-2019, 05:00 | .torrent скачали: 0

    Мстители: Война бесконечности / Avengers: Infinity War (2018) BDRip [H.264 / 1080p] [Hybrid] [hand made 16:9]Производство: США/Marvel Studios Inc.
    Жанр: Фантастика, Фэнтези, Приключения, Боевик
    Режиссер: Энтони Руссо, Джо Руссо

    Актеры
    Роберт Дауни мл., Крис Хемсворт, Марк Руффало, Крис Эванс, Скарлетт Йоханссон, Дон Чидл, Бенедикт Камбербэтч, Том Холланд (II), Чэдвик Боузмэн, Зои Салдана

    Описание

    Пока Мстители и их союзники продолжают защищать мир от различных опасностей, с которыми не смог бы справиться один супергерой, новая угроза возникает из космоса: Танос. Межгалактический тиран преследует цель собрать все шесть Камней Бесконечности — артефакты невероятной силы, с помощью которых можно менять реальность по своему желанию. Всё, с чем Мстители сталкивались ранее, вело к этому моменту — судьба Земли никогда ещё не была столь неопределённой.

    Возраст: 16+ (зрителям, достигшим 16 лет)
    Рейтинг MPAA: PG-13 (детям до 13 лет просмотр нежелателен)
    Дата мировой премьеры: 23 апреля 2018
    Дата российской премьеры: 3 мая 2018, WDSSPR 3D
    Продолжительность: 02: 29: 21
    Качество видео: BDRip
    Перевод: Дублированный (Лицензия)
    Субтитры: Русские (форс., полные), Английские (форс., полные)
    Видео: AVC/H.264, 1920x1080, ~10 Mbps
    Аудио #1: AC3, 6 ch, 640 kbps - Русский
    Аудио #2: DTS, 6 ch, 1509 kbps - Английский

    x264 info: frame I: 1682 Avg QP: 16.16 size: 267469
    x264 info: frame P: 54805 Avg QP: 19.59 size: 93194
    x264 info: frame B: 158368 Avg QP: 20.48 size: 35639
    Unique ID : 225258507472072233552242808113784202271 (0xA97735E1CF7978C0B0F58C5BC1F0A41F)
    Complete name : D: TempNNMВойна бесконечности OM.mkv
    Format : Matroska
    Format version : Version 4/Version 2
    File size : 12.7 GiB
    Duration : 2h 29mn
    Overall bit rate : 12.2 Mbps
    Encoded date : UTC 2019-01-08 08: 36: 30
    Writing application : mkvmerge v9.8.0 (\'Kuglblids\') 64bit
    Writing library : libebml v1.3.4 + libmatroska v1.4.5
    Video
    ID : 1
    Format : AVC
    Format/Info : Advanced Video Codec
    Format profile : High@L4.1
    Format settings, CABAC : Yes
    Format settings, ReFrames : 4 frames
    Codec ID : V_MPEG4/ISO/AVC
    Duration : 2h 29mn
    Bit rate : 10 000 Kbps
    Width : 1 920 pixels
    Height : 1 080 pixels
    Display aspect ratio : 16: 9
    Frame rate mode : Constant
    Frame rate : 23.976 fps
    Color space : YUV
    Chroma subsampling : 4: 2: 0
    Bit depth : 8 bits
    Scan type : Progressive
    Bits/(Pixel*Frame) : 0.201
    Stream size : 10.2 GiB (80%)
    Writing library : x264 core 148 r2665M a01e339
    Encoding settings : cabac=1/ref=4/deblock=1: -3: -3/analyse=0x3: 0x113/me=umh/subme=10/psy=1/psy_rd=1.05: 0.10/mixed_ref=1/me_range=24/chroma_me=1/trellis=2/8x8dct=1/cqm=0/deadzone=21, 11/fast_pskip=0/chroma_qp_offset=-3/threads=5/lookahead_threads=1/sliced_threads=0/nr=0/decimate=0/interlaced=0/bluray_compat=0/constrained_intra=0/bframes=7/b_pyramid=2/b_adapt=2/b_bias=0/direct=1/weightb=1/open_gop=0/weightp=2/keyint=230/keyint_min=23/scenecut=40/intra_refresh=0/rc_lookahead=40/rc=2pass/mbtree=1/bitrate=10000/ratetol=1.0/qcomp=0.70/qpmin=3/qpmax=69/qpstep=4/cplxblur=20.0/qblur=0.5/ip_ratio=1.40/aq=2: 1.00
    Language : English
    Default : Yes
    Forced : No
    Audio #1
    ID : 2
    Format : AC-3
    Format/Info : Audio Coding 3
    Mode extension : CM (complete main)
    Format settings, Endianness : Big
    Codec ID : A_AC3
    Duration : 2h 29mn
    Bit rate mode : Constant
    Bit rate : 640 Kbps
    Channel(s) : 6 channels
    Channel positions : Front: L C R, Side: L R, LFE
    Sampling rate : 48.0 KHz
    Bit depth : 16 bits
    Compression mode : Lossy
    Stream size : 684 MiB (5%)
    Title : Дубляж
    Language : Russian
    Default : Yes
    Forced : No
    Audio #2
    ID : 3
    Format : DTS
    Format/Info : Digital Theater Systems
    Mode : 16
    Format settings, Endianness : Big
    Codec ID : A_DTS
    Duration : 2h 29mn
    Bit rate mode : Constant
    Bit rate : 1 509 Kbps
    Channel(s) : 6 channels
    Channel positions : Front: L C R, Side: L R, LFE
    Sampling rate : 48.0 KHz
    Bit depth : 24 bits
    Compression mode : Lossy
    Stream size : 1.57 GiB (12%)
    Language : English
    Default : No
    Forced : No
    Text #1
    ID : 4
    Format : UTF-8
    Codec ID : S_TEXT/UTF8
    Codec ID/Info : UTF-8 Plain Text
    Title : Forced
    Language : Russian
    Default : Yes
    Forced : No
    Text #2
    ID : 5
    Format : UTF-8
    Codec ID : S_TEXT/UTF8
    Codec ID/Info : UTF-8 Plain Text
    Title : Full
    Language : Russian
    Default : No
    Forced : No
    Text #3
    ID : 6
    Format : UTF-8
    Codec ID : S_TEXT/UTF8
    Codec ID/Info : UTF-8 Plain Text
    Title : Forced
    Language : English
    Default : No
    Forced : No
    Text #4
    ID : 7
    Format : UTF-8
    Codec ID : S_TEXT/UTF8
    Codec ID/Info : UTF-8 Plain Text
    Title : Full
    Language : English
    Default : No
    Forced : No

    Скриншоты для ознакомления



    Все одноименные релизы в Клубе
    Время раздачи: 24/7 (до появления первых 3-5 скачавших)


    Мстители: Война бесконечности/Avengers: Infinity War (2018) BDRip [H.264/1080p] [Hybrid] [hand made 16:9]
    Рейтинг →
     (голосов: 1, оценка 5/5, голосовать можно 1 раз )

    Другие торренты по теме:

  • Мстители: Война бесконечности / Avengers: Infinity War (2018) WEBRip [H.264 / 1080p] [Трейлер] [EN]
  • Мстители: Война бесконечности / Avengers: Infinity War (2018) TS [H.264 / 720p-LQ] [AD] [MVO]
  • Alan Silvestri - Мстители: Война бесконечности / Avengers: Infinity War (Deluxe Edition) (2018) [FLAC|Lossless|tracks]<Soundtrack>
  • Alan Silvestri - Мстители: Война бесконечности / Avengers: Infinity War (Deluxe Edition) (2018) [MP3|320 Kbps] <Soundtrack>
  • Мстители: Война бесконечности / Avengers: Infinity War (2018) TS Proper [H.264 / 720p] [AD]
  • Мстители: Война бесконечности / Avengers: Infinity War (2018) TS Proper [H.264]
  • Мстители: Война бесконечности / Avengers: Infinity War (2018) WEB-DLRip [H.264 / 1080p-LQ] [Line, AD]
  • Мстители: Война бесконечности / Avengers: Infinity War (2018) WEB-DL [H.264 / 1080p-LQ] [EN]


    • Комментарии (0):

      Информация

      Информация

        Посетители, находящиеся в группе Гости, не могут оставлять комментарии в данной новости.

        ↓ Меню




        ↓ Опрос

        Вы добавили сайт в закладки?
        Да
        Нет


        Популярное