.
Авторизация | Регистрация

bitok.xyz

» » Братья Мейсон / The Mason Brothers (2017) WEBRip [MVO] [AD] торрент скачать бесплатно


    Братья Мейсон / The Mason Brothers (2017) WEBRip [MVO] [AD] торрент скачать бесплатно

    Дата: 9-01-2019, 05:00 | .torrent скачали: 1

    Братья Мейсон / The Mason Brothers (2017) WEBRip [MVO] [AD]Производство: США
    Жанр: Триллер, драма, криминал
    Режиссер: Кит Сатлифф

    Актеры
    Карлотта Монтанари, Хулиен Цезарио, Насо Браво, Тим Парк, Кит Сатлифф, Грегори Гордон, Стив Бетерс, Эрика Соуза, Дэвид А. Тревино, Мэттью Уэбб

    Описание

    Организованная преступная группировка, состоящая из братьев, планирует ограбить один из банков Лос Анжелеса на десять миллионов долларов. Во время операции в банк врываются неизвестные в масках, планы рушатся. Лидер и старший из братьев Рэн Мейсон нанимает охотника за головами Джерри, чтобы узнать, кто стоит за перестрелкой и предательством в банке.

    Рейтинг MPAA: R (лицам до 17 лет обязательно присутствие взрослого)
    Дата мировой премьеры: 14 апреля 2017
    Продолжительность: 01: 56: 32
    Качество видео: WEBRip
    Перевод: Многоголосый закадровый (Синема УС)
    Субтитры: Отсутствуют
    Реклама: Присутствуют вставки видео, голосовой и текстовой рекламы
    Видео: Xvid, 720x320 (2, 25: 1), ~1580 Kbps
    Аудио: AC3, 2 ch, 192 Kbps

    Общее
    Полное имя : G: The.Mason.Brothers (2017).avi
    Формат : AVI
    Формат/Информация : Audio Video Interleave
    Размер файла : 1, 45 Гбайт
    Продолжительность : 1 ч. 56 м.
    Общий поток : 1782 Кбит/сек
    Программа кодирования : VirtualDubMod 1.5.10.2 (build 2540/release)
    Библиотека кодирования : VirtualDubMod build 2540/release
    Видео
    Идентификатор : 0
    Формат : MPEG-4 Visual
    Профиль формата : Advanced Simple@L5
    Настройки формата : BVOP2/Custom Matrix
    Параметр BVOP формата : 2
    Параметр QPel формата : Нет
    Параметр GMC формата : Без точки перехода
    Параметр матрицы формата : Выборочная
    Идентификатор кодека : XVID
    Идентификатор кодека/Подсказка : XviD
    Продолжительность : 1 ч. 56 м.
    Битрейт : 1581 Кбит/сек
    Ширина : 720 пикселей
    Высота : 320 пикселей
    Соотношение сторон : 2, 25: 1
    Частота кадров : 23, 976 (24000/1001) кадра/сек
    Цветовое пространство : YUV
    Субдискретизация насыщенности : 4: 2: 0
    Битовая глубина : 8 бит
    Тип развёртки : Прогрессивная
    Метод сжатия : С потерями
    Бит/(Пиксели*Кадры) : 0.286
    Размер потока : 1, 29 Гбайт (89%)
    Библиотека кодирования : XviD 1.2.1 (UTC 2008-12-04)
    Аудио
    Идентификатор : 1
    Формат : AC-3
    Формат/Информация : Audio Coding 3
    Коммерческое название : Dolby Digital
    Идентификатор кодека : 2000
    Продолжительность : 1 ч. 56 м.
    Вид битрейта : Постоянный
    Битрейт : 192 Кбит/сек
    Каналы : 2 канала
    Channel layout : L R
    Частота : 48, 0 КГц
    Частота кадров : 31, 250 кадров/сек (1536 SPF)
    Битовая глубина : 16 бит
    Метод сжатия : С потерями
    Размер потока : 160 Мбайт (11%)
    Выравнивание : Разделение по промежуткам
    Продолжительность промежутка : 42 мс. (1, 00 видеокадр)
    Время предзагрузки промежутка : 500 мс.
    ServiceKind/String : Complete Main

    Скриншоты для ознакомления



    Все одноименные релизы в Клубе
    Время раздачи: 24/7 (круглосуточно) (до появления первых 3-5 скачавших)


    Братья Мейсон/The Mason Brothers (2017) WEBRip [MVO] [AD]
    Рейтинг →
     (голосов: 1, оценка 3/5, голосовать можно 1 раз )

    Другие торренты по теме:

  • Братья Дорохины - Братья Дорохины (1999) [FLAC|Lossless|image + .cue] <Pop>
  • [Фотография] Братья наши меньшие, красивые и не очень. Фотографии пользователей NoNaMe Club
  • Брати Гадюкіни(Братья Гадюкины) - Made in Ukraine (2014) [MP3|320 кб / с] <Rock> скачать через торрент бесплатно
  • Корсиканские братья / I fratelli Corsi / Les Freres Corses (1961) DVDRip [H.264]
  • Братья по обмену (2014) WEB-DLRip [H.264 / 720p-LQ] (сезон 2, серии 1-4 из 12) (обновляемая)
  • Братья по обмену (2014) SATRip (сезон 2, серии 01-04 из 10) (oбновляемая)
  • Братья по обмену (2014) WEB-DLRip (сезон 2, серии 1-7 из 12) (обновляемая) скачать через торрент бесплатно
  • Братья по обмену (2014) WEB-DLRip [H.264] (сезон 2, серии 1-12 из 12)


    • Комментарии (0):

      Информация

      Информация

        Посетители, находящиеся в группе Гости, не могут оставлять комментарии в данной новости.

        ↓ Меню




        ↓ Опрос

        Вы добавили сайт в закладки?
        Да
        Нет


        Популярное