.
Авторизация | Регистрация

bitok.xyz

» » Братья Систерс / The Sisters Brothers (2018) BDRip [H.264 / 1080p-LQ] [hand made 16:9] торрент скачать бесплатно


    Братья Систерс / The Sisters Brothers (2018) BDRip [H.264 / 1080p-LQ] [hand made 16:9] торрент скачать бесплатно

    Дата: 24-01-2019, 05:00 | .torrent скачали: 9

    Братья Систерс / The Sisters Brothers (2018) BDRip [H.264 / 1080p-LQ] [hand made 16:9]Производство: Франция, Испания, Румыния, США, Бельгия/Why Not Productions, Annapurna Pictures, Page 114 Productions
    Жанр: Драма, Комедия, Криминал, Вестерн, Приключения
    Режиссер: Жак Одиар

    Актеры
    Джон Си Райли, Хоакин Феникс, Джейк Джилленхол, Риз Ахмед, Ребекка Рут, Эллисон Толман, Рутгер Хауэр, Кэрол Кейн, Патрис Коссоно, Зак Эбботт

    Описание

    Братья-беспредельщики по фамилии Систерс по заданию таинственного Командора должны прикончить некоего Уорма, золотоискателя-авантюриста. Фартовые по жизни охотники за головами гонятся за новой жертвой, не подозревая, что их разведчик не так-то прост… Начинается игра на выживание: острый ум против безбашенной силы.

    Возраст: 18+ (зрителям, достигшим 18 лет. запрещено для детей)
    Рейтинг MPAA: R (лицам до 17 лет обязательно присутствие взрослого)
    Дата мировой премьеры: 2 сентября 2018
    Дата российской премьеры: 29 ноября 2018
    Продолжительность: 02: 01: 05
    Качество видео: BDRip 1080p
    Перевод: Дублированный (iTunes )
    Субтитры: Русские (полные), английские (полные)
    Видео: AVC/H.264, 1920x1080 ~5 Mbps
    Аудио 1: AC3, 6 ch, 384 Kbps - Русский
    Аудио 2: AC3, 6 ch, 640 Kbps - Английский
    x264 info: frame I: 46 Avg QP: 15.48 size: 149542
    x264 info: frame P: 820 Avg QP: 20.26 size: 34474
    x264 info: frame B: 1684 Avg QP: 22.71 size: 18568
    Unique ID : 2646455161643031924469867189873060424 (0x1FDB0503B260148D3E7FCFB6D4EAA48)
    Complete name : D: TempNNMБратья Систерс.1080p.FS.mkv
    Format : Matroska
    Format version : Version 4/Version 2
    File size : 5.10 GiB
    Duration : 2h 1mn
    Overall bit rate : 6 028 Kbps
    Movie name : The Sisters Brothers (2018)
    Writing library : Lavf57.71.100
    Video
    ID : 1
    Format : AVC
    Format/Info : Advanced Video Codec
    Format profile : High@L4.1
    Format settings, CABAC : Yes
    Format settings, ReFrames : 4 frames
    Codec ID : V_MPEG4/ISO/AVC
    Duration : 2h 1mn
    Bit rate : 5 000 Kbps
    Width : 1 920 pixels
    Height : 1 080 pixels
    Display aspect ratio : 16: 9
    Frame rate mode : Constant
    Frame rate : 24.000 fps
    Color space : YUV
    Chroma subsampling : 4: 2: 0
    Bit depth : 8 bits
    Scan type : Progressive
    Bits/(Pixel*Frame) : 0.100
    Stream size : 4.13 GiB (81%)
    Writing library : x264 core 157 r2935 545de2f
    Encoding settings : cabac=1/ref=4/deblock=1: -3: -2/analyse=0x3: 0x113/me=umh/subme=10/psy=1/psy_rd=1.05: 0.10/mixed_ref=1/me_range=24/chroma_me=1/trellis=2/8x8dct=1/cqm=0/deadzone=21, 11/fast_pskip=0/chroma_qp_offset=-3/threads=5/lookahead_threads=1/sliced_threads=0/nr=0/decimate=0/interlaced=0/bluray_compat=0/constrained_intra=0/bframes=6/b_pyramid=2/b_adapt=2/b_bias=0/direct=1/weightb=1/open_gop=0/weightp=2/keyint=240/keyint_min=24/scenecut=40/intra_refresh=0/rc=2pass/mbtree=0/bitrate=5000/ratetol=1.0/qcomp=0.70/qpmin=3/qpmax=69/qpstep=4/cplxblur=20.0/qblur=0.5/ip_ratio=1.40/pb_ratio=1.30/aq=2: 1.00
    Language : English
    Default : Yes
    Forced : No
    Color primaries : BT.709
    Transfer characteristics : BT.709
    Matrix coefficients : BT.709
    Audio #1
    ID : 2
    Format : AC-3
    Format/Info : Audio Coding 3
    Mode extension : CM (complete main)
    Format settings, Endianness : Big
    Codec ID : A_AC3
    Duration : 2h 1mn
    Bit rate mode : Constant
    Bit rate : 384 Kbps
    Channel(s) : 6 channels
    Channel positions : Front: L C R, Side: L R, LFE
    Sampling rate : 48.0 KHz
    Bit depth : 16 bits
    Compression mode : Lossy
    Stream size : 333 MiB (6%)
    Title : iTunes
    Language : Russian
    Default : Yes
    Forced : Yes
    Audio #2
    ID : 3
    Format : AC-3
    Format/Info : Audio Coding 3
    Mode extension : CM (complete main)
    Format settings, Endianness : Big
    Codec ID : A_AC3
    Duration : 2h 1mn
    Bit rate mode : Constant
    Bit rate : 640 Kbps
    Channel(s) : 6 channels
    Channel positions : Front: L C R, Side: L R, LFE
    Sampling rate : 48.0 KHz
    Bit depth : 16 bits
    Compression mode : Lossy
    Stream size : 554 MiB (11%)
    Title : Original
    Language : English
    Default : Yes
    Forced : No
    Text #1
    ID : 4
    Format : UTF-8
    Codec ID : S_TEXT/UTF8
    Codec ID/Info : UTF-8 Plain Text
    Title : Full
    Language : Russian
    Default : Yes
    Forced : No
    Text #2
    ID : 5
    Format : UTF-8
    Codec ID : S_TEXT/UTF8
    Codec ID/Info : UTF-8 Plain Text
    Title : Full
    Language : English
    Default : No
    Forced : No

    Скриншоты для ознакомления



    Все одноименные релизы в Клубе
    Время раздачи: (до появления первых 3-5 скачавших)

    Братья Систерс/The Sisters Brothers (2018) BDRip [H.264/1080p-LQ] [hand made 16:9]
    Рейтинг →
     (голосов: 1, оценка 5/5, голосовать можно 1 раз )

    Другие торренты по теме:

  • Братья Систерс / The Sisters Brothers (2018) WEB-DL [H.264 / 1080p-LQ] [MVO] [AD]
  • Братья Систерс / The Sisters Brothers (2018) WEB-DL [H.264 / 1080p-LQ] [EN / RU, EN Sub]
  • Братья Систерс / The Sisters Brothers (2018) HDRip [H.264 / 720p-LQ]
  • Братья Систерс / The Sisters Brothers (2018) BDRip [H.264 / 1080p] [PR]
  • Братья Систерс / The Sisters Brothers (2018) WEB-DL [1080p] ATV
  • Братья Систерс / The Sisters Brothers (2018) BDRip [H.264 / 1080p-LQ]
  • Братья Систерс / The Sisters Brothers (2018) HDRip
  • Братья Систерс / The Sisters Brothers (2018) BDRemux [H.264 / 1080p]


    • Комментарии (0):

      Информация

      Информация

        Посетители, находящиеся в группе Гости, не могут оставлять комментарии в данной новости.

        ↓ Меню




        ↓ Опрос

        Вы добавили сайт в закладки?
        Да
        Нет


        Популярное