.
Авторизация | Регистрация

bitok.xyz

» » Хантер Киллер / Hunter Killer (2018) BDRip [H.264 / 1080p-LQ] [hand made 16:9] торрент скачать бесплатно


    Хантер Киллер / Hunter Killer (2018) BDRip [H.264 / 1080p-LQ] [hand made 16:9] торрент скачать бесплатно

    Дата: 27-01-2019, 05:01 | .torrent скачали: 4

    Хантер Киллер / Hunter Killer (2018) BDRip [H.264 / 1080p-LQ] [hand made 16:9]Производство: США
    Жанр: Боевик, Триллер, Военный
    Режиссер: Донован Марш

    Актеры
    Джерард Батлер, Гари Олдман, Коммон, Зейн Холц, Микаэл Нюквист, Тоби Стивенс, Линда Карделлини, Этан Бейрд, Джейкоб Скипио, Демпси Бовелл

    Описание

    Американская атомная подлодка Хантер Киллер вместе с подразделением военно-морских сил США вступает в крайне рискованную боевую авантюру по спасению мира от катастрофы. Когда время на исходе и каждая минута на счету, элитной команде придется совершить невозможное, чтобы предотвратить конфликт мирового масштаба.

    Возраст: 18+ (зрителям, достигшим 18 лет. запрещено для детей)
    Рейтинг MPAA: R (лицам до 17 лет обязательно присутствие взрослого)
    Дата мировой премьеры: 19 октября 2018
    Дата российской премьеры: 8 ноября 2018, MEGOGO Distribution
    Продолжительность: 02: 01: 42
    Качество видео: BDRip
    Перевод: Дублированный (iTunes)
    Субтитры: Английский (полные)
    Видео: AVC/H.264, 1920x1080 ~6 Mbps
    Аудио 1: AC3, 6 ch, 384 kbps - Русский
    Аудио 2: AC3, 6 ch, 640 kbps - Английский

    x264 info: frame I: 1404 Avg QP: 19.10 size: 185800
    x264 info: frame P: 44734 Avg QP: 21.48 size: 59317
    x264 info: frame B: 128943 Avg QP: 22.24 size: 19827
    Unique ID : 176666982614201018323652613355226451910 (0x84E8D2BD3E45E38BA6C29536C15ECFC6)
    Complete name : D: TempNNMХантер Киллер.2018.FS.mkv
    Format : Matroska
    Format version : Version 4/Version 2
    File size : 5.97 GiB
    Duration : 2h 1mn
    Overall bit rate : 7 020 Kbps
    Movie name : Hunter Killer.2018.Remux
    Encoded date : UTC 2019-01-26 12: 28: 20
    Writing application : mkvmerge v9.8.0 (\'Kuglblids\') 64bit
    Writing library : Lavf57.71.100
    Video
    ID : 1
    Format : AVC
    Format/Info : Advanced Video Codec
    Format profile : High@L4.1
    Format settings, CABAC : Yes
    Format settings, ReFrames : 4 frames
    Codec ID : V_MPEG4/ISO/AVC
    Duration : 2h 1mn
    Bit rate : 6 000 Kbps
    Width : 1 920 pixels
    Height : 1 080 pixels
    Display aspect ratio : 16: 9
    Frame rate mode : Constant
    Frame rate : 23.976 fps
    Color space : YUV
    Chroma subsampling : 4: 2: 0
    Bit depth : 8 bits
    Scan type : Progressive
    Bits/(Pixel*Frame) : 0.121
    Stream size : 4.98 GiB (83%)
    Writing library : x264 core 157 r2935 545de2f
    Encoding settings : cabac=1/ref=4/deblock=1: -3: -3/analyse=0x3: 0x113/me=umh/subme=11/psy=1/psy_rd=1.05: 0.10/mixed_ref=1/me_range=32/chroma_me=1/trellis=2/8x8dct=1/cqm=0/deadzone=21, 11/fast_pskip=0/chroma_qp_offset=-3/threads=5/lookahead_threads=1/sliced_threads=0/nr=0/decimate=0/interlaced=0/bluray_compat=0/constrained_intra=0/bframes=7/b_pyramid=2/b_adapt=2/b_bias=0/direct=1/weightb=1/open_gop=0/weightp=2/keyint=240/keyint_min=24/scenecut=40/intra_refresh=0/rc=2pass/mbtree=0/bitrate=6000/ratetol=1.0/qcomp=0.70/qpmin=3/qpmax=69/qpstep=4/cplxblur=20.0/qblur=0.5/ip_ratio=1.40/pb_ratio=1.30/aq=2: 1.00
    Language : English
    Default : Yes
    Forced : No
    Audio #1
    ID : 2
    Format : AC-3
    Format/Info : Audio Coding 3
    Mode extension : CM (complete main)
    Format settings, Endianness : Big
    Codec ID : A_AC3
    Duration : 2h 1mn
    Bit rate mode : Constant
    Bit rate : 384 Kbps
    Channel(s) : 6 channels
    Channel positions : Front: L C R, Side: L R, LFE
    Sampling rate : 48.0 KHz
    Bit depth : 16 bits
    Compression mode : Lossy
    Stream size : 334 MiB (5%)
    Title : DUB | iTunes
    Language : Russian
    Default : Yes
    Forced : No
    Audio #2
    ID : 3
    Format : AC-3
    Format/Info : Audio Coding 3
    Mode extension : CM (complete main)
    Format settings, Endianness : Big
    Codec ID : A_AC3
    Duration : 2h 1mn
    Bit rate mode : Constant
    Bit rate : 640 Kbps
    Channel(s) : 6 channels
    Channel positions : Front: L C R, Side: L R, LFE
    Sampling rate : 48.0 KHz
    Bit depth : 16 bits
    Compression mode : Lossy
    Stream size : 557 MiB (9%)
    Language : English
    Default : No
    Forced : No
    Text
    ID : 4
    Format : UTF-8
    Codec ID : S_TEXT/UTF8
    Codec ID/Info : UTF-8 Plain Text
    Title : Full
    Language : English
    Default : Yes
    Forced : No

    Скриншоты для ознакомления



    Все одноименные релизы в Клубе
    Время раздачи: 24/7 (до появления первых 3-5 скачавших)


    Хантер Киллер/Hunter Killer (2018) BDRip [H.264/1080p-LQ] [hand made 16:9]
    Рейтинг →
     (голосов: 1, оценка 3/5, голосовать можно 1 раз )

    Другие торренты по теме:

  • Хантер Киллер / Hunter Killer (2018) TS [MVO] [AD]
  • Хантер Киллер / Hunter Killer (2018) WEBRip [Звук с TS] [AD]
  • Хантер Киллер / Hunter Killer (2018) WEBRip [EN / Kor Sub]
  • Хантер Киллер / Hunter Killer (2018) WEBRip [H.264 / 1080p-LQ] [EN / Kor Sub]
  • Хантер Киллер / Hunter Killer (2018) WEBRip [MVO] [AD]
  • Хантер Киллер / Hunter Killer (2018) WEBRip [H.264 / 720p-LQ] [Line, AD]
  • Хантер Киллер / Hunter Killer (2018) WEBRip [MVO]
  • Хантер Киллер / Hunter Killer (2018) WEBRip [H.264 / 1080p-LQ] [MVO]


    • Комментарии (0):

      Информация

      Информация

        Посетители, находящиеся в группе Гости, не могут оставлять комментарии в данной новости.

        ↓ Меню




        ↓ Опрос

        Вы добавили сайт в закладки?
        Да
        Нет


        Популярное