.
Авторизация | Регистрация

bitok.xyz

» » АлоэВера - Концерт в Тюмени (2018) CAM [H.264 / 1080p-LQ] торрент скачать бесплатно


    АлоэВера - Концерт в Тюмени (2018) CAM [H.264 / 1080p-LQ] торрент скачать бесплатно

    Дата: 30-01-2019, 05:00 | .torrent скачали: 6

    АлоэВера - Концерт в Тюмени (2018) CAM [H.264 / 1080p-LQ]Год выпуска: 2018
    Жанр: Поп-музыка, Танцевальная музыка
    Участники: Вера Мусаелян, Дмитрий Дерябин, Артем Клименко, Григорий Басов, Ниндзя, Станислав Ландырев

    Описание

    Концерт группы АлоэВера в Тюмени 10 ноября 2018 года.
    Продолжительность: 02: 11: 45
    Качество видео: Camcorder
    Субтитры: отсутствуют
    Видео: AVC/H.264, 1920x1080, ~4509 Kbps
    Аудио: MP3, 2 ch, 320 Kbps
    01. Как прекрасен огород
    02. Несуразная
    03. Это море
    04. Стыд
    05. Олег
    06. Георгины
    07. Морем
    08. Лето
    09. Неумело
    10. Красиво
    11. Оправданий нет
    12. Отвертка
    13. Капитан
    14. Ты что такой
    15. Как боги
    16. Ватрушка
    17. Понимаешь, девочка
    18. Не было
    19. Мальчики
    20. Кварталам
    21. Рейволюция
    22. Легче
    23. Бросайте мужей
    24. Самокат
    25. Ватрушка

    Format : Matroska
    Format version : Version 4
    File size : 4.45 GiB
    Duration : 2 h 11 min
    Overall bit rate mode : Variable
    Overall bit rate : 4 831 kb/s
    Movie name : AloeVera Live in Tyumen 2018
    Encoded date : UTC 2019-01-27 22: 59: 43
    Writing application : mkvmerge v30.1.0 (\'Forever And More\') 64-bit
    Writing library : libebml v1.3.6 + libmatroska v1.4.9
    Video
    ID : 1
    Format : AVC
    Format/Info : Advanced Video Codec
    Format profile : High@L4
    Format settings : CABAC/2 Ref Frames
    Format settings, CABAC : Yes
    Format settings, ReFrames : 2 frames
    Format settings, GOP : M=1, N=30
    Codec ID : V_MPEG4/ISO/AVC
    Duration : 2 h 11 min
    Bit rate mode : Variable
    Bit rate : 4 509 kb/s
    Maximum bit rate : 768 kb/s
    Width : 1 920 pixels
    Height : 1 080 pixels
    Display aspect ratio : 16: 9
    Frame rate mode : Constant
    Frame rate : 25.000 FPS
    Color space : YUV
    Chroma subsampling : 4: 2: 0
    Bit depth : 8 bits
    Scan type : Progressive
    Bits/(Pixel*Frame) : 0.087
    Stream size : 4.15 GiB (93%)
    Default : Yes
    Forced : No
    Color range : Limited
    Color primaries : BT.709
    Transfer characteristics : BT.709
    Matrix coefficients : BT.709
    Audio
    ID : 2
    Format : MPEG Audio
    Format version : Version 1
    Format profile : Layer 3
    Format settings : Joint stereo
    Codec ID : A_MPEG/L3
    Codec ID/Hint : MP3
    Duration : 2 h 11 min
    Bit rate mode : Constant
    Bit rate : 320 kb/s
    Channel(s) : 2 channels
    Sampling rate : 44.1 kHz
    Frame rate : 38.281 FPS (1152 SPF)
    Compression mode : Lossy
    Stream size : 302 MiB (7%)
    Writing library : LAME3.99r
    Encoding settings : -m j -V 4 -q 0 -lowpass 20.5
    Default : Yes
    Forced : No

    Скриншоты для ознакомления



    Все одноименные релизы в Клубе
    Время раздачи: Пн-Пт с 18: 00 до 22: 00 (до появления первых 3-5 скачавших)


    АлоэВера - Концерт в Тюмени (2018) CAM [H.264/1080p-LQ]
    Рейтинг →
     (голосов: 2, оценка 5/5, голосовать можно 1 раз )

    Другие торренты по теме:

  • АлоэВера - Держи меня в курсе (2016) EP [MP3|320 кб / с] <Pop-Rock, Indie Pop>
  • АлоэВера - Алимоно (2018) [MP3|320 Kbps] <Pop-Rock>


    • Комментарии (0):

      Информация

      Информация

        Посетители, находящиеся в группе Гости, не могут оставлять комментарии в данной новости.

        ↓ Меню




        ↓ Опрос

        Вы добавили сайт в закладки?
        Да
        Нет


        Популярное