.
Авторизация | Регистрация

bitok.xyz

» » Не вешайте трубку / Dont Hang Up (2016) BDRip [H.265 / 1080p-LQ] [MVO] [AD] торрент скачать бесплатно


    Не вешайте трубку / Dont Hang Up (2016) BDRip [H.265 / 1080p-LQ] [MVO] [AD] торрент скачать бесплатно

    Дата: 3-02-2019, 05:00 | .torrent скачали: 13

    Не вешайте трубку / Dont Hang Up (2016) BDRip [H.265 / 1080p-LQ] [MVO] [AD]Производство: Великобритания/Bigscope Films, Don\'t Hang Up Films, Wild Spark
    Жанр: Ужасы, Триллер
    Режиссер: Дэмиен Масе, Алексис Вайсброт

    Актеры
    Грегг Салкин, Гарретт Клэйтон, Белла Дэйн, Паркер Сойерс, Джек Бретт Андерсон, Филип Десмюль, Сиенна Гиллори, Роберт Гудман, Майкл Боди, Крис Уилсон

    Описание

    Сэм и Брэйди – два пранкера, которые устраивают весьма жесткие розыгрыши по телефону, а затем выкладывают видео об этом в Интернет. Очередной веселый вечер пранков не предвещал ничего особенного, но неожиданно парни сами становятся жертвами. Неизвестный мужчина названивает по их номерам, намекает, что знает о ребятах куда больше, чем им хотелось бы рассказывать случайным людям, и обещает ночь экстрима, если они посмеют повесить трубку.

    Рейтинг MPAA: R (лицам до 17 лет обязательно присутствие взрослого)
    Релиз от: Goor80
    Продолжительность: 01: 23: 32
    Качество видео: BDRip
    Перевод: Многоголосый закадровый (GreenРай Studio)
    Субтитры: отсутствуют
    Реклама: присутствуют аудио вставки рекламы
    Видео: HEVC/H.265, 1920x816, ~6143 Kbps
    Аудио 1: AC3, 2 ch, 448 Kbps (русский)
    Аудио 2: AC3, 6 ch, 448 Kbps (английский)
    Общее
    Уникальный идентификатор : 327797643844114863443841485987672434951 (0xF69B87A0D5BE2257572ABF879C1B2907)
    Полное имя : E: VideoНе вешайте трубку (Don\'t Hang Up).mkv
    Формат : Matroska
    Версия формата : Version 4/Version 2
    Размер файла : 4, 19 Гбайт
    Продолжительность : 1 ч. 23 м.
    Общий поток : 7182 Кбит/сек
    Название фильма : Не вешайте трубку/Don\'t Hang Up
    Кодирование произвёл : Goor80
    Дата выпуска : 2016
    Программа кодирования : mkvmerge v22.0.0 (\'At The End Of The World\') 64-bit
    Библиотека кодирования : libebml v1.3.5 + libmatroska v1.4.8/NVEncC (x64) 4.29 (r977) by rigaya, Dec 17 2018 12: 04: 34 (VC 1900/Win/avx2)
    Обложка : Yes
    Attachments : cover.jpg/small_cover.jpg/cover_land.jpg/small_cover_land.jpg
    ENCODER_SETTINGS : --avhw cuda --cqp 18: 20: 22 --codec h265 --preset quality --profile main10 --tier high --output-depth 10 --weightp --bframes 8 --ref 4 --lookahead 32 --aq --aq-temporal --transfer auto --aud --mv-precision q-pel --crop 0, 132, 0, 132
    Released by : Buba5473 for NNM-Club
    Видео
    Идентификатор : 1
    Формат : HEVC
    Формат/Информация : High Efficiency Video Coding
    Профиль формата : Main 10@L4@Main
    Идентификатор кодека : V_MPEGH/ISO/HEVC
    Продолжительность : 1 ч. 23 м.
    Битрейт : 6143 Кбит/сек
    Ширина : 1920 пикселей
    Высота : 816 пикселей
    Соотношение сторон : 2, 35: 1
    Режим частоты кадров : Постоянный
    Частота кадров : 23, 976 (24000/1001) кадра/сек
    Цветовое пространство : YUV
    Субдискретизация насыщенности : 4: 2: 0
    Битовая глубина : 10 бит
    Бит/(Пиксели*Кадры) : 0.164
    Размер потока : 3, 58 Гбайт (86%)
    Default : Да
    Forced : Нет
    Цветовой диапазон : Limited
    Характеристики трансфера : BT.709
    Statistics Tags Issue : mkvmerge v22.0.0 (\'At The End Of The World\') 64-bit 2019-01-27 05: 46: 30/mkvmerge v22.0.0 (\'At The End Of The World\') 64-bit
    FromStats_BitRate : 6313621
    FromStats_Duration : 01: 23: 10.444000000
    FromStats_FrameCount : 119651
    FromStats_StreamSize : 3938471879
    Аудио #1
    Идентификатор : 2
    Формат : AC-3
    Формат/Информация : Audio Coding 3
    Идентификатор кодека : A_AC3
    Продолжительность : 1 ч. 23 м.
    Вид битрейта : Постоянный
    Битрейт : 448 Кбит/сек
    Каналы : 2 канала
    Расположение каналов : Front: L R
    Частота : 48, 0 КГц
    Частота кадров : 31, 250 кадров/сек (1536 SPF)
    Битовая глубина : 16 бит
    Метод сжатия : С потерями
    Задержка видео : 408 мс.
    Размер потока : 268 Мбайт (6%)
    Заголовок : Перевод: многоголосый закадровый, GreenРай Studio
    Язык : Russian
    ServiceKind/String : Complete Main
    Default : Да
    Forced : Нет
    Statistics Tags Issue : mkvmerge v22.0.0 (\'At The End Of The World\') 64-bit 2019-01-27 05: 46: 30/mkvmerge v22.0.0 (\'At The End Of The World\') 64-bit
    FromStats_BitRate : 447555
    FromStats_Duration : 01: 23: 10.165000000
    FromStats_FrameCount : 155788
    FromStats_StreamSize : 279172096
    Аудио #2
    Идентификатор : 3
    Формат : AC-3
    Формат/Информация : Audio Coding 3
    Идентификатор кодека : A_AC3
    Продолжительность : 1 ч. 23 м.
    Вид битрейта : Постоянный
    Битрейт : 448 Кбит/сек
    Каналы : 6 каналов
    Расположение каналов : Front: L C R, Side: L R, LFE
    Частота : 48, 0 КГц
    Частота кадров : 31, 250 кадров/сек (1536 SPF)
    Битовая глубина : 16 бит
    Метод сжатия : С потерями
    Размер потока : 268 Мбайт (6%)
    Язык : English
    ServiceKind/String : Complete Main
    Default : Нет
    Forced : Нет
    Statistics Tags Issue : mkvmerge v22.0.0 (\'At The End Of The World\') 64-bit 2019-01-27 05: 46: 30/mkvmerge v22.0.0 (\'At The End Of The World\') 64-bit
    FromStats_BitRate : 448000
    FromStats_Duration : 01: 23: 32.064000000
    FromStats_FrameCount : 156627
    FromStats_StreamSize : 280675584
    Меню
    00: 00: 00.000 : en: Chapter 01
    00: 05: 56.481 : en: Chapter 02
    00: 14: 15.604 : en: Chapter 03
    00: 21: 10.811 : en: Chapter 04
    00: 25: 43.416 : en: Chapter 05
    00: 32: 41.376 : en: Chapter 06
    00: 40: 22.002 : en: Chapter 07
    00: 48: 00.377 : en: Chapter 08
    00: 54: 11.748 : en: Chapter 09
    01: 00: 52.774 : en: Chapter 10
    01: 09: 36.463 : en: Chapter 11
    01: 15: 44.456 : en: Chapter 12
    XMP
    Xmp.video.FileName : E: VideoНе вешайте трубку (Don\'t Hang Up).mkv
    Xmp.video.FileSize : -9.53674e-007
    Xmp.video.MimeType : video/matroska
    Xmp.video.EBMLVersion : 1
    Xmp.video.EBMLReadVersion : 1
    Xmp.video.DocType : matroska
    Xmp.video.DocTypeVersion : 4
    Xmp.video.DocTypeReadVersion : 2
    Xmp.video.TimecodeScale : 0.001
    Xmp.video.MuxingApp : libebml v1.3.5 + libmatroska v1.4.8
    Xmp.video.WritingApp : mkvmerge v22.0.0 (\'At The End Of The World\') 64-bit
    Xmp.video.Duration : 5012064
    Xmp.video.Title : Не вешайте трубку/Don\'t Hang Up
    Xmp.video.TotalStream : 9
    Xmp.video.TrackLacing : No
    Xmp.video.Codec : V_MPEGH/ISO/HEVC
    Xmp.video.FrameRate : 23.976
    Xmp.video.TrackLang : und
    Xmp.video.Width : 1920
    Xmp.video.Height : 816
    Xmp.audio.Compressor : A_AC3
    Xmp.audio.DefaultDuration : 32000
    Xmp.audio.TrackLang : rus
    Xmp.video.TrackName : Перевод: РјРЅРѕРіРѕРіРѕРосый закадровый, GreenРай Studio
    Xmp.audio.SampleRate : 48000
    Xmp.audio.ChannelType : Stereo
    Xmp.audio.DefaultOn : No
    Xmp.video.AttachFileName : small_cover_land.jpg
    Xmp.video.AttachFileMIME : image/jpeg
    Xmp.video.AttachFileUID : 8785767749812902174
    Xmp.video.AspectRatio : 2.35: 1
    H.265/HEVC (High Efficiency Video Coding) - это новый стандарт кодирования видео.
    *Рипы в фомате HEVC, в настоящее время поддерживается не всеми аппаратными проигрывателями.
    *Для корректного воспроизведения может потребоваться обновление ПО.
    *Стандарт H.265/HEVC является логическим продолжением стандарта H.264/AVC (Advanced Video Coding), и характеризуется более эффективными алгоритмами сжатия, а также поддержкой высокого разрешения вплоть до 8K UHD (8192x4320). Первая версия стандарта H.265 была опубликована в начале 2013 года.
    Любителям решения из коробки - установить последнюю версию на выбор:
    Media Player Classic - Black Edition (MPC-BE)
    VLC media player
    Daum Pot Player
    GOM Media Player
    Любителям WMP и других плееров, использующих по умолчанию для воспроизведения системные кодеки+сплитеры - установить K-Lite Codec Pack версии 10.1.0 и выше.
    Любимые плееры, не использующии по умолчанию для воспроизведения системные кодеки+сплитеры, нужно перенастроить на использование оных.
    Скриншоты для ознакомления



    Все одноименные релизы в Клубе
    Время раздачи: с 11: 00 до 21: 00 по Новосибирску (UTC +7) (до появления первых 3-5 скачавших)

    Не вешайте трубку/Dont Hang Up (2016) BDRip [H.265/1080p-LQ] [MVO] [AD]
    Рейтинг →
     (голосов: 1, оценка 4/5, голосовать можно 1 раз )

    Другие торренты по теме:

  • Не вешайте трубку / Dont Hang Up (2016) WEB-DLRip
  • Не вешайте трубку / Dont Hang Up (2016) BDRip [H.264 / 720p-LQ] [MVO] [AD]
  • Не вешайте трубку / Dont Hang Up (2016) BDRemux [H.264 / 1080p] [EN]


    • Комментарии (0):

      Информация

      Информация

        Посетители, находящиеся в группе Гости, не могут оставлять комментарии в данной новости.

        ↓ Меню




        ↓ Опрос

        Вы добавили сайт в закладки?
        Да
        Нет


        Популярное