.
Авторизация | Регистрация

bitok.xyz

» » Оверлорд / Overlord (2018) BDRip [H.264 / 1080p-LQ] [hand made 16:9] торрент скачать бесплатно


    Оверлорд / Overlord (2018) BDRip [H.264 / 1080p-LQ] [hand made 16:9] торрент скачать бесплатно

    Дата: 18-02-2019, 05:01 | .torrent скачали: 0

    Оверлорд / Overlord (2018) BDRip [H.264 / 1080p-LQ] [hand made 16:9]Производство: США/Bad Robot, Paramount Pictures
    Жанр: Ужасы, фантастика, боевик, детектив, приключения, военный
    Режиссер: Джулиус Эйвери

    Актеры
    Джован Адепо, Уайатт Расселл, Матильда Олливье, Йохан Филип Асбек, Джон Магаро, Иэн де Кестекер, Джейкоб Андерсон, Доминик Эпплуайт, Джанни Тофер, Джозеф Куинн

    Описание

    Накануне высадки союзников в Нормандии несколько американских десантников проникают в оккупированный немцами посёлок, чтобы разрушить их радиомачту. Лазутчикам предстоит столкнуться не только с фашистскими военными, но и с паранормальными последствиями нацистских экспериментов.

    Возраст: 18+ (зрителям, достигшим 18 лет. запрещено для детей)
    Рейтинг MPAA: R (лицам до 17 лет обязательно присутствие взрослого)
    Дата мировой премьеры: 22 сентября 2018
    Дата российской премьеры: 8 ноября 2018
    Продолжительность: 01: 49: 47
    Качество видео: BDRip
    Перевод: Дублированный (Лицензия BD EUR )
    Субтитры: Русские (форс., полные), английские (полные)
    Видео: AVC/H.264, 1920x1080, ~5 Mbps
    Аудио #1: AC3, 6 ch, 640 Kbps - Русский
    Аудио #2: AC3, 6 ch, 640 Kbps - Английский

    x264 info: frame I: 69 Avg QP: 15.56 size: 144888
    x264 info: frame P: 831 Avg QP: 19.10 size: 36271
    x264 info: frame B: 1637 Avg QP: 21.83 size: 23339
    Unique ID : 79867618700605975372939491836903484879 (0x3C15F19FC6AEE62169FCC4EF95B2EDCF)
    Complete name : D: TempNNMОверлорд.2018.FS.mkv
    Format : Matroska
    Format version : Version 4/Version 2
    File size : 4.81 GiB
    Duration : 1h 49mn
    Overall bit rate : 6 272 Kbps
    Movie name : Overlord.BDRemux
    Writing library : Lavf57.71.100
    Video
    ID : 1
    Format : AVC
    Format/Info : Advanced Video Codec
    Format profile : High@L4.1
    Format settings, CABAC : Yes
    Format settings, ReFrames : 4 frames
    Codec ID : V_MPEG4/ISO/AVC
    Duration : 1h 49mn
    Bit rate : 5 000 Kbps
    Width : 1 920 pixels
    Height : 1 080 pixels
    Display aspect ratio : 16: 9
    Frame rate mode : Constant
    Frame rate : 23.976 fps
    Color space : YUV
    Chroma subsampling : 4: 2: 0
    Bit depth : 8 bits
    Scan type : Progressive
    Bits/(Pixel*Frame) : 0.101
    Stream size : 3.73 GiB (78%)
    Writing library : x264 core 157 r2935 545de2f
    Encoding settings : cabac=1/ref=4/deblock=1: -3: -3/analyse=0x3: 0x113/me=umh/subme=10/psy=1/psy_rd=1.05: 0.10/mixed_ref=1/me_range=24/chroma_me=1/trellis=2/8x8dct=1/cqm=0/deadzone=21, 11/fast_pskip=0/chroma_qp_offset=-3/threads=5/lookahead_threads=1/sliced_threads=0/nr=0/decimate=0/interlaced=0/bluray_compat=0/constrained_intra=0/bframes=6/b_pyramid=2/b_adapt=2/b_bias=0/direct=1/weightb=1/open_gop=0/weightp=2/keyint=240/keyint_min=24/scenecut=40/intra_refresh=0/rc=2pass/mbtree=0/bitrate=5000/ratetol=1.0/qcomp=0.70/qpmin=3/qpmax=69/qpstep=4/cplxblur=20.0/qblur=0.5/ip_ratio=1.40/pb_ratio=1.30/aq=2: 1.00
    Language : English
    Default : Yes
    Forced : No
    Audio #1
    ID : 2
    Format : AC-3
    Format/Info : Audio Coding 3
    Mode extension : CM (complete main)
    Format settings, Endianness : Big
    Codec ID : A_AC3
    Duration : 1h 49mn
    Bit rate mode : Constant
    Bit rate : 640 Kbps
    Channel(s) : 6 channels
    Channel positions : Front: L C R, Side: L R, LFE
    Sampling rate : 48.0 KHz
    Bit depth : 16 bits
    Compression mode : Lossy
    Stream size : 503 MiB (10%)
    Title : Russian Dub License
    Language : Russian
    Default : Yes
    Forced : Yes
    Audio #2
    ID : 3
    Format : AC-3
    Format/Info : Audio Coding 3
    Mode extension : CM (complete main)
    Format settings, Endianness : Big
    Codec ID : A_AC3
    Duration : 1h 49mn
    Bit rate mode : Constant
    Bit rate : 640 Kbps
    Channel(s) : 6 channels
    Channel positions : Front: L C R, Side: L R, LFE
    Sampling rate : 48.0 KHz
    Bit depth : 16 bits
    Compression mode : Lossy
    Stream size : 503 MiB (10%)
    Title : English AC-3
    Language : English
    Default : Yes
    Forced : No
    Text #1
    ID : 4
    Format : UTF-8
    Codec ID : S_TEXT/UTF8
    Codec ID/Info : UTF-8 Plain Text
    Title : Russian forced
    Language : Russian
    Default : Yes
    Forced : Yes
    Text #2
    ID : 5
    Format : UTF-8
    Codec ID : S_TEXT/UTF8
    Codec ID/Info : UTF-8 Plain Text
    Title : Russian full
    Language : Russian
    Default : Yes
    Forced : No
    Text #3
    ID : 6
    Format : UTF-8
    Codec ID : S_TEXT/UTF8
    Codec ID/Info : UTF-8 Plain Text
    Title : English SDH
    Language : English
    Default : No
    Forced : No

    Скриншоты для ознакомления



    Все одноименные релизы в Клубе
    Время раздачи: 24/7 (до появления первых 3-5 скачавших)


    Оверлорд/Overlord (2018) BDRip [H.264/1080p-LQ] [hand made 16:9]
    Рейтинг →
     (голосов: 1, оценка 4/5, голосовать можно 1 раз )

    Другие торренты по теме:

  • Оверлорд / Overlord (2018) CamRip [AD]
  • Оверлорд / Overlord (2018) WEBRip [Line, AD]
  • Оверлорд / Overlord (2018) WEBRip [H.264 / 1080p-LQ] [Line, AD]
  • Оверлорд / Overlord (2018) HDRip [UKR / Ukr Sub]
  • Оверлорд / Overlord (2018) BDRip [H.264 / 1080p] [UKR, EN / Ukr, Eng Sub]
  • Оверлорд / Overlord (2018) BDRip [H.264 / 1080p]
  • Оверлорд / Overlord (2018) HDRip
  • Оверлорд / Overlord (2018) BDRip [H.264 / 720p] [PR]


    • Комментарии (0):

      Информация

      Информация

        Посетители, находящиеся в группе Гости, не могут оставлять комментарии в данной новости.

        ↓ Меню




        ↓ Опрос

        Вы добавили сайт в закладки?
        Да
        Нет


        Популярное