.
Авторизация | Регистрация

bitok.xyz

» » Девушка, которая застряла в паутине / The Girl in the Spiders Web (2018) BDRip [H.264 / 1080p-LQ] [hand made 16:9] торрент скачать бесплатно


    Девушка, которая застряла в паутине / The Girl in the Spiders Web (2018) BDRip [H.264 / 1080p-LQ] [hand made 16:9] торрент скачать бесплатно

    Дата: 6-03-2019, 05:00 | .torrent скачали: 10

    Девушка, которая застряла в паутине / The Girl in the Spiders Web (2018) BDRip [H.264 / 1080p-LQ] [hand made 16:9]Производство: Великобритания, Германия, Швеция, Канада, США, Cantillon Company
    Жанр: Боевик, Триллер, Криминал, Драма
    Режиссер: Федерико Альварес

    Актеры
    Клер Фой, Сверрир Гуднасон, Сильвия Хукс, Лакит Стэнфилд, Стивен Мерчант, Камерон Бриттон, Вики Крипс, Фолькер Брух, Микаэл Персбрандт, Клас Банг

    Описание

    Хакер Лисбет Саландер и журналист Микаэль Блумквист оказываются втянуты в историю с участием шпионов, киберпреступников и коррумпированных чиновников.

    Возраст: 18+ (зрителям, достигшим 18 лет. запрещено для детей)
    Рейтинг MPAA: R (лицам до 17 лет обязательно присутствие взрослого)
    Дата мировой премьеры: 18 октября 2018
    Дата российской премьеры: 8 ноября 2018
    Продолжительность: 01: 55: 26
    Качество видео: BDRip
    Перевод: Дублированный (BD CEE)
    Субтитры: русские (форс., полные), английские (полные)
    Видео: AVC/H.264, 1920x1080, ~4.5 Mbps
    Аудио #1: AC3, 6 ch, 640 kbps - русский
    Аудио #2: AC3, 6 ch, 640 kbps - английский

    x264 info: frame I: 1303 Avg QP: 16.73 size: 131683
    x264 info: frame P: 46453 Avg QP: 18.04 size: 46125
    x264 info: frame B: 118300 Avg QP: 20.07 size: 13364
    Unique ID : 140964560131686869401711225083419070346 (0x6A0CC968272CD9208D90DA4C034E8F8A)
    Complete name : D: TempNNMGirl In The Web.2018.FS.mkv
    Format : Matroska
    Format version : Version 4/Version 2
    File size : 4.66 GiB
    Duration : 1h 55mn
    Overall bit rate : 5 784 Kbps
    Movie name : Devuschka, kotoraya.zastryala.v.pautine.2018.BDRemux.1080p.NNMClub
    Writing library : Lavf57.71.100
    Video
    ID : 1
    Format : AVC
    Format/Info : Advanced Video Codec
    Format profile : High@L4.1
    Format settings, CABAC : Yes
    Format settings, ReFrames : 4 frames
    Codec ID : V_MPEG4/ISO/AVC
    Duration : 1h 55mn
    Bit rate : 4 500 Kbps
    Width : 1 920 pixels
    Height : 1 080 pixels
    Display aspect ratio : 16: 9
    Frame rate mode : Constant
    Frame rate : 23.976 fps
    Color space : YUV
    Chroma subsampling : 4: 2: 0
    Bit depth : 8 bits
    Scan type : Progressive
    Bits/(Pixel*Frame) : 0.091
    Stream size : 3.54 GiB (76%)
    Writing library : x264 core 157 r2935 545de2f
    Encoding settings : cabac=1/ref=4/deblock=1: -3: -3/analyse=0x3: 0x113/me=umh/subme=9/psy=1/psy_rd=1.05: 0.10/mixed_ref=1/me_range=24/chroma_me=1/trellis=2/8x8dct=1/cqm=0/deadzone=21, 11/fast_pskip=0/chroma_qp_offset=-3/threads=5/lookahead_threads=1/sliced_threads=0/nr=0/decimate=0/interlaced=0/bluray_compat=0/constrained_intra=0/bframes=6/b_pyramid=2/b_adapt=2/b_bias=0/direct=1/weightb=1/open_gop=0/weightp=2/keyint=240/keyint_min=24/scenecut=40/intra_refresh=0/rc=2pass/mbtree=0/bitrate=4500/ratetol=1.0/qcomp=0.70/qpmin=3/qpmax=69/qpstep=4/cplxblur=20.0/qblur=0.5/ip_ratio=1.40/pb_ratio=1.30/aq=2: 1.00
    Language : English
    Default : Yes
    Forced : No
    Audio #1
    ID : 2
    Format : AC-3
    Format/Info : Audio Coding 3
    Mode extension : CM (complete main)
    Format settings, Endianness : Big
    Codec ID : A_AC3
    Duration : 1h 55mn
    Bit rate mode : Constant
    Bit rate : 640 Kbps
    Channel(s) : 6 channels
    Channel positions : Front: L C R, Side: L R, LFE
    Sampling rate : 48.0 KHz
    Bit depth : 16 bits
    Compression mode : Lossy
    Stream size : 528 MiB (11%)
    Title : Licence
    Language : Russian
    Default : Yes
    Forced : No
    Audio #2
    ID : 3
    Format : AC-3
    Format/Info : Audio Coding 3
    Mode extension : CM (complete main)
    Format settings, Endianness : Big
    Codec ID : A_AC3
    Duration : 1h 55mn
    Bit rate mode : Constant
    Bit rate : 640 Kbps
    Channel(s) : 6 channels
    Channel positions : Front: L C R, Side: L R, LFE
    Sampling rate : 48.0 KHz
    Bit depth : 16 bits
    Compression mode : Lossy
    Stream size : 528 MiB (11%)
    Title : Original
    Language : English
    Default : No
    Forced : No
    Text #1
    ID : 4
    Format : UTF-8
    Codec ID : S_TEXT/UTF8
    Codec ID/Info : UTF-8 Plain Text
    Title : Forced
    Language : Russian
    Default : Yes
    Forced : No
    Text #2
    ID : 5
    Format : UTF-8
    Codec ID : S_TEXT/UTF8
    Codec ID/Info : UTF-8 Plain Text
    Title : iTunes
    Language : Russian
    Default : No
    Forced : No
    Text #3
    ID : 6
    Format : UTF-8
    Codec ID : S_TEXT/UTF8
    Codec ID/Info : UTF-8 Plain Text
    Title : Full
    Language : English
    Default : No
    Forced : No

    Скриншоты для ознакомления



    Все одноименные релизы в Клубе
    Время раздачи: 24/7 (до появления первых 3-5 скачавших)


    Девушка, которая застряла в паутине/The Girl in the Spiders Web (2018) BDRip [H.264/1080p-LQ] [hand made 16:9]
    Рейтинг →
     (голосов: 1, оценка 3/5, голосовать можно 1 раз )

    Другие торренты по теме:

  • Миллениум: Трилогия Девушка с татуировкой дракона / Девушка, которая играла с огнем / Девушка, которая взрывала воздушные замки / Man som hatar kvinnor / Flickan som lekte med elden / Luftslottet som sprangdes (2009) [720p] BDRip
  • Давид Лагеркранц | Девушка, которая застряла в паутине (2016) [MP3]
  • Давид Лагеркранц | Девушка, которая искала чужую тень (2017) [FB2]
  • Давид Лагеркранц | Девушка, которая искала чужую тень (2017) [MP3]
  • Кристин Фере-Флери | Девушка, которая читала в метро (2018) [FB2]
  • Девушка, которая застряла в паутине / The Girl in the Spiders Web (2018) TS [AD]
  • Девушка, которая застряла в паутине / The Girl in the Spiders Web (2018) WEB-DL [H.264 / 1080p-LQ]
  • Девушка, которая застряла в паутине / The Girl in the Spiders Web (2018) WEB-DLRip


    • Комментарии (1):

      #1 Написал: fregat (Администраторы | 44/82) - 6 марта 2019 22:53
        Кто знает что за кино? wink

        Информация

        Информация

          Посетители, находящиеся в группе Гости, не могут оставлять комментарии в данной новости.

          ↓ Меню




          ↓ Опрос

          Вы добавили сайт в закладки?
          Да
          Нет


          Популярное