.
Авторизация | Регистрация

bitok.xyz

» » Хроники хищных городов / Mortal Engines (2018) BDRip [H.264 / 1080p-LQ] [hand made 16:9] торрент скачать бесплатно


    Хроники хищных городов / Mortal Engines (2018) BDRip [H.264 / 1080p-LQ] [hand made 16:9] торрент скачать бесплатно

    Дата: 8-03-2019, 05:00 | .torrent скачали: 1

    Хроники хищных городов / Mortal Engines (2018) BDRip [H.264 / 1080p-LQ] [hand made 16:9]Производство: Новая Зеландия, США/Media Rights Capital (MRC), Scholastic Productions, Silvertongue Films
    Жанр: Приключения, Боевик, Фантастика, Триллер
    Режиссер: Кристиан Риверс

    Актеры
    Роберт Шиэн, Хьюго Уивинг, Джихе, Ронан Рафтери, Лейла Джордж, Патрик Мэлахайд, Стивен Лэнг, Колин Сэлмон, Марк Митчинсон

    Описание

    Прошли тысячелетия после того, как мир настиг апокалипсис. Человечество адаптировалось и теперь живет по новым правилам. Гигантские движущиеся мегаполисы рассекают пустоши и поглощают маленькие города ради ресурсов. Том Нэтсуорти из нижнего уровня великого Лондона оказывается в смертельной опасности, когда на его пути появляется скрывающаяся от закона бунтарка Эстер Шоу. Они не должны были встретиться, но им суждено изменить будущее.

    Возраст: 12+ (зрителям, достигшим 12 лет)
    Рейтинг MPAA: PG-13 (детям до 13 лет просмотр нежелателен)
    Дата мировой премьеры: 5 декабря 2018
    Дата российской премьеры: 6 декабря 2018
    Продолжительность: 02: 08: 21
    Качество видео: BDRip
    Перевод: Дублированный (iTunes)
    Субтитры: русские (форс., полные), английские (полные)
    Видео: AVC/H.264, 1920x1080, ~6 Mbps
    Аудио #1: AC3, 6 ch, 384 kbps - русский
    Аудио #2: AC3, 6 ch, 448 kbps - английский

    x264 info: frame I: 1518 Avg QP: 16.01 size: 145994
    x264 info: frame P: 57263 Avg QP: 18.18 size: 58105
    x264 info: frame B: 125861 Avg QP: 19.76 size: 17671
    Unique ID : 194922151235000389576433037934624922110 (0x92A4A40ABBE185AB862110D1ADB659FE)
    Complete name : D: TempNNMMortalEngines.2018.FS.mkv
    Format : Matroska
    Format version : Version 4/Version 2
    File size : 6.12 GiB
    Duration : 2h 8mn
    Overall bit rate : 6 831 Kbps
    Movie name : Mortal Engines 2018 from селезень
    Encoded date : UTC 2019-03-07 19: 02: 03
    Writing application : mkvmerge v9.8.0 (\'Kuglblids\') 64bit
    Writing library : libebml v1.3.4 + libmatroska v1.4.5
    Video
    ID : 1
    Format : AVC
    Format/Info : Advanced Video Codec
    Format profile : High@L4.1
    Format settings, CABAC : Yes
    Format settings, ReFrames : 4 frames
    Codec ID : V_MPEG4/ISO/AVC
    Duration : 2h 8mn
    Bit rate : 6 000 Kbps
    Width : 1 920 pixels
    Height : 1 080 pixels
    Display aspect ratio : 16: 9
    Frame rate mode : Constant
    Frame rate : 23.976 fps
    Color space : YUV
    Chroma subsampling : 4: 2: 0
    Bit depth : 8 bits
    Scan type : Progressive
    Bits/(Pixel*Frame) : 0.121
    Stream size : 5.26 GiB (86%)
    Writing library : x264 core 157 r2935 545de2f
    Encoding settings : cabac=1/ref=4/deblock=1: -3: -3/analyse=0x3: 0x113/me=umh/subme=9/psy=1/psy_rd=1.05: 0.10/mixed_ref=1/me_range=24/chroma_me=1/trellis=2/8x8dct=1/cqm=0/deadzone=21, 11/fast_pskip=0/chroma_qp_offset=-3/threads=5/lookahead_threads=1/sliced_threads=0/nr=0/decimate=0/interlaced=0/bluray_compat=0/constrained_intra=0/bframes=6/b_pyramid=2/b_adapt=2/b_bias=0/direct=1/weightb=1/open_gop=0/weightp=2/keyint=240/keyint_min=24/scenecut=40/intra_refresh=0/rc=2pass/mbtree=0/bitrate=6000/ratetol=1.0/qcomp=0.70/qpmin=3/qpmax=69/qpstep=4/cplxblur=20.0/qblur=0.5/ip_ratio=1.40/pb_ratio=1.30/aq=2: 1.00
    Default : Yes
    Forced : No
    Audio #1
    ID : 2
    Format : AC-3
    Format/Info : Audio Coding 3
    Mode extension : CM (complete main)
    Format settings, Endianness : Big
    Codec ID : A_AC3
    Duration : 2h 8mn
    Bit rate mode : Constant
    Bit rate : 384 Kbps
    Channel(s) : 6 channels
    Channel positions : Front: L C R, Side: L R, LFE
    Sampling rate : 48.0 KHz
    Bit depth : 16 bits
    Compression mode : Lossy
    Stream size : 353 MiB (6%)
    Language : Russian
    Default : Yes
    Forced : No
    Audio #2
    ID : 3
    Format : AC-3
    Format/Info : Audio Coding 3
    Mode extension : CM (complete main)
    Format settings, Endianness : Big
    Codec ID : A_AC3
    Duration : 2h 8mn
    Bit rate mode : Constant
    Bit rate : 448 Kbps
    Channel(s) : 6 channels
    Channel positions : Front: L C R, Side: L R, LFE
    Sampling rate : 48.0 KHz
    Bit depth : 16 bits
    Compression mode : Lossy
    Stream size : 411 MiB (7%)
    Language : English
    Default : No
    Forced : No
    Text #1
    ID : 4
    Format : UTF-8
    Codec ID : S_TEXT/UTF8
    Codec ID/Info : UTF-8 Plain Text
    Title : Forced
    Language : Russian
    Default : Yes
    Forced : Yes
    Text #2
    ID : 5
    Format : UTF-8
    Codec ID : S_TEXT/UTF8
    Codec ID/Info : UTF-8 Plain Text
    Title : Full
    Language : Russian
    Default : No
    Forced : No
    Text #3
    ID : 6
    Format : UTF-8
    Codec ID : S_TEXT/UTF8
    Codec ID/Info : UTF-8 Plain Text
    Title : Full
    Language : English
    Default : No
    Forced : No

    Скриншоты для ознакомления



    Все одноименные релизы в Клубе
    Время раздачи: 24/7 (до появления первых 3-5 скачавших)


    Хроники хищных городов/Mortal Engines (2018) BDRip [H.264/1080p-LQ] [hand made 16:9]
    Рейтинг →
     (голосов: 1, оценка 5/5, голосовать можно 1 раз )

    Другие торренты по теме:

  • Хроники хищных городов / Mortal Engines (2018) CamRip [AD]
  • Tom Holkenborg aka Junkie XL - Mortal Engines / Хроники хищных городов (Original Motion Picture Soundtrack) (2018) [FLAC|Lossless|WEB-DL|tracks]<Soundtrack>
  • Tom Holkenborg aka Junkie XL - Mortal Engines / Хроники хищных городов (Original Motion Picture Soundtrack) (2018) [MP3|320 кб / с]<Soundtrack>
  • Филип Рив | Цикл «Хроники хищных городов» [4 книги] (2018) [FB2]
  • Хроники хищных городов / Mortal Engines (2018) WEBRip [Звук с TS, AD]
  • Хроники хищных городов / Mortal Engines (2018) WEBRip [H.264 / 720p-LQ] [Звук с TS, AD]
  • Хроники хищных городов / Mortal Engines (2018) WEBRip [H.264 / 1080p-LQ] [EN / Rus, Eng, Kor Sub]
  • Хроники хищных городов / Mortal Engines (2018) WEBRip [H.264 / 720p-LQ]


    • Комментарии (0):

      Информация

      Информация

        Посетители, находящиеся в группе Гости, не могут оставлять комментарии в данной новости.

        ↓ Меню




        ↓ Опрос

        Вы добавили сайт в закладки?
        Да
        Нет


        Популярное