.
Авторизация | Регистрация
bitok.xyz
» » Фантастические твари: Преступления Грин-де-Вальда / Fantastic Beasts: The Crimes of Grindelwald (2018) BDRip 3D [H.264 / 1080p] [вертикальная анаморфная стереопара] [hand made 16:9] торрент скачать бесплатно


    Фантастические твари: Преступления Грин-де-Вальда / Fantastic Beasts: The Crimes of Grindelwald (2018) BDRip 3D [H.264 / 1080p] [вертикальная анаморфная стереопара] [hand made 16:9] торрент скачать бесплатно

    Дата: 14-03-2019, 05:00 | .torrent скачали: 13

    Фантастические твари: Преступления Грин-де-Вальда / Fantastic Beasts: The Crimes of Grindelwald (2018) BDRip 3D [H.264 / 1080p] [вертикальная анаморфная стереопара] [hand made 16:9]Производство: Великобритания, США/Heyday Films, Warner Bros. Pictures
    Жанр: Фэнтези, Приключения, Семейный
    Режиссер: Дэвид Йейтс

    Актеры
    Эдди Редмэйн, Джонни Депп, Кэтрин Уотерстон, Элисон Судол, Дэн Фоглер, Джуд Лоу, Эзра Миллер, Зои Кравиц, Каллум Тернер, Клаудия Ким

    Описание

    Могущественный тёмный волшебник Геллерт Грин-де-Вальд пойман в Штатах, но не собирается молча сидеть в темнице и устраивает грандиозный побег. Теперь ничто не помешает ему добиться своей цели — установить превосходство волшебников над всеми немагическими существами на планете. Чтобы сорвать планы Грин-де-Вальда, Альбус Дамблдор обращается к своему бывшему студенту Ньюту Саламандеру, который соглашается помочь, не подозревая, какая опасность ему грозит. В раскалывающемся на части волшебном мире любовь и верность проверяются на прочность, а конфликт разделяет даже настоящих друзей и членов семей.

    Возраст: 12+ (зрителям, достигшим 12 лет)
    Рейтинг MPAA: PG-13 (детям до 13 лет просмотр нежелателен)
    Дата мировой премьеры: 8 ноября 2018
    Дата российской премьеры: 15 ноября 2018
    Продолжительность: 02: 13: 50
    Качество видео: BDRip 3D
    Перевод: Дублированный (Лицензия BD EUR)
    Субтитры: Русские (форс., полные), английские (полные)
    Видео: AVC/H.264, 1920x1080, ~ 10 Mbps
    Аудио #1: AC3, 6 ch, 448 Kbps - Русский
    Аудио #2: DTS, 6 ch, 1509 Kbps - Английский
    x264 info: frame I: 1440 Avg QP: 14.16 size: 265019
    x264 info: frame P: 49845 Avg QP: 17.00 size: 104485
    x264 info: frame B: 141228 Avg QP: 19.04 size: 31459
    Unique ID : 224043194159349742677702635090214446046 (0xA88D264F401BD5189E3FE17C5328E3DE)
    Complete name : D: TempNNMF.beasts.FS.2018.mkv
    Format : Matroska
    Format version : Version 4/Version 2
    File size : 11.2 GiB
    Duration : 2h 13mn
    Overall bit rate : 12.0 Mbps
    Movie name : F_BEASTS_TCOG_2018_3D_RMX.Title0
    Encoded date : UTC 2019-03-13 06: 29: 23
    Writing application : mkvmerge v9.8.0 (\'Kuglblids\') 64bit
    Writing library : libebml v1.3.4 + libmatroska v1.4.5
    Video
    ID : 1
    Format : AVC
    Format/Info : Advanced Video Codec
    Format profile : High@L4.1
    Format settings, CABAC : Yes
    Format settings, ReFrames : 4 frames
    Codec ID : V_MPEG4/ISO/AVC
    Duration : 2h 13mn
    Bit rate : 10 000 Kbps
    Width : 1 920 pixels
    Height : 1 080 pixels
    Display aspect ratio : 16: 9
    Frame rate mode : Constant
    Frame rate : 23.976 fps
    Color space : YUV
    Chroma subsampling : 4: 2: 0
    Bit depth : 8 bits
    Scan type : Progressive
    Bits/(Pixel*Frame) : 0.201
    Stream size : 9.12 GiB (82%)
    Writing library : x264 core 157 r2935 545de2f
    Encoding settings : cabac=1/ref=4/deblock=1: -3: -3/analyse=0x3: 0x113/me=umh/subme=10/psy=1/psy_rd=1.05: 0.10/mixed_ref=1/me_range=24/chroma_me=1/trellis=2/8x8dct=1/cqm=0/deadzone=21, 11/fast_pskip=0/chroma_qp_offset=-3/threads=5/lookahead_threads=1/sliced_threads=0/nr=0/decimate=0/interlaced=0/bluray_compat=0/constrained_intra=0/bframes=6/b_pyramid=2/b_adapt=2/b_bias=0/direct=1/weightb=1/open_gop=0/weightp=2/keyint=240/keyint_min=24/scenecut=40/intra_refresh=0/rc=2pass/mbtree=0/bitrate=10000/ratetol=1.0/qcomp=0.70/qpmin=3/qpmax=69/qpstep=4/cplxblur=20.0/qblur=0.5/ip_ratio=1.40/pb_ratio=1.30/aq=2: 1.00
    Default : Yes
    Forced : No
    Audio #1
    ID : 2
    Format : AC-3
    Format/Info : Audio Coding 3
    Mode extension : CM (complete main)
    Format settings, Endianness : Big
    Codec ID : A_AC3
    Duration : 2h 13mn
    Bit rate mode : Constant
    Bit rate : 448 Kbps
    Channel(s) : 6 channels
    Channel positions : Front: L C R, Side: L R, LFE
    Sampling rate : 48.0 KHz
    Bit depth : 16 bits
    Compression mode : Lossy
    Stream size : 429 MiB (4%)
    Language : Russian
    Default : Yes
    Forced : No
    Audio #2
    ID : 3
    Format : DTS
    Format/Info : Digital Theater Systems
    Mode : 16
    Format settings, Endianness : Big
    Codec ID : A_DTS
    Duration : 2h 13mn
    Bit rate mode : Constant
    Bit rate : 1 509 Kbps
    Channel(s) : 6 channels
    Channel positions : Front: L C R, Side: L R, LFE
    Sampling rate : 48.0 KHz
    Bit depth : 16 bits
    Compression mode : Lossy
    Stream size : 1.41 GiB (13%)
    Language : English
    Default : No
    Forced : No
    Text #1
    ID : 4
    Format : UTF-8
    Codec ID : S_TEXT/UTF8
    Codec ID/Info : UTF-8 Plain Text
    Title : Forced
    Language : Russian
    Default : Yes
    Forced : Yes
    Text #2
    ID : 5
    Format : UTF-8
    Codec ID : S_TEXT/UTF8
    Codec ID/Info : UTF-8 Plain Text
    Title : Full
    Language : Russian
    Default : No
    Forced : No
    Text #3
    ID : 6
    Format : UTF-8
    Codec ID : S_TEXT/UTF8
    Codec ID/Info : UTF-8 Plain Text
    Language : English
    Default : No
    Forced : No

    Скриншоты для ознакомления



    Все одноименные релизы в Клубе
    Время раздачи: 24/7 (до появления первых 3-5 скачавших)

    Фантастические твари: Преступления Грин-де-Вальда/Fantastic Beasts: The Crimes of Grindelwald (2018) BDRip 3D [H.264/1080p] [вертикальная анаморфная стереопара] [hand made 16:9]
    Рейтинг →
     (голосов: 1, оценка 4/5, голосовать можно 1 раз )

    Другие торренты по теме:

  • Фантастические твари / Fantastic Beasts (2016, 2018) BDRip [H.264 / 720p] [Дилогия]
  • Фантастические твари и где они обитают / Fantastic Beasts and Where to Find Them (2016) DСPRip [2K] [Hi10P, Hi444PP] [Трейлер]
  • Фантастические твари и где они обитают / Fantastic Beasts and Where to Find Them (2016) DСPRip [2K] [Hi10P, Hi444PP] [Трейлер]
  • James Newton Howard - Fantastic Beasts and Where to Find Them / Фантастические твари и где они обитают (Original Motion Picture Soundtrack) (2016) [FLAC|Lossless|WEB-DL|tracks]<Soundtrack>
  • James Newton Howard - Fantastic Beasts and Where to Find Them / Фантастические твари и где они обитают (Original Motion Picture Soundtrack) (2016) [MP3|320 кб / с]<Soundtrack>
  • Фантастические твари и где они обитают / Fantastic Beasts and Where to Find Them (2016) CamRip
  • Фантастические твари и где они обитают / Fantastic Beasts and Where to Find Them (2016) HD-TS [Звук с CAMRip]
  • Фантастические твари и где они обитают / Fantastic Beasts and Where to Find Them (2016) WEBRip [H.264 / 720p-LQ] [Звук с TS]


    • Комментарии (0):

      Информация

      Информация

        Посетители, находящиеся в группе Гости, не могут оставлять комментарии в данной новости.

        ↓ Меню




        ↓ Опрос

        Вы добавили сайт в закладки?
        Да
        Нет


        Популярное