.
Авторизация | Регистрация

bitok.xyz

» » Человек-паук: Через вселенные / Spider-Man: Into the Spider-Verse (2018) BDRip 3D [H.264 / 1080p] [вертикальная анаморфная стереопара] [hand made 16:9] торрент скачать бесплатно


    Человек-паук: Через вселенные / Spider-Man: Into the Spider-Verse (2018) BDRip 3D [H.264 / 1080p] [вертикальная анаморфная стереопара] [hand made 16:9] торрент скачать бесплатно

    Дата: 18-03-2019, 05:00 | .torrent скачали: 0

    Человек-паук: Через вселенные / Spider-Man: Into the Spider-Verse (2018) BDRip 3D [H.264 / 1080p] [вертикальная анаморфная стереопара] [hand made 16:9]Производство: США/Sony Pictures Entertainment (SPE), Columbia Pictures Corporation, Marvel Entertainment
    Жанр: Мультфильм, фантастика, боевик, комедия, приключения, семейный
    Режиссер: Боб Персичетти, Питер Рэмзи, Родни Ротман
    Продюсер: Уилл Аллегра, Ави Арад, Брайан Бендис

    Актеры
    Шамеик Мур, Джейк Джонсон, Хейли Стайнфелд, Махершала Али, Брайан Тайри Генри, Лили Томлин, Луна Лорен Велес, Зои Кравиц, Джон Малэйни, Кимико Гленн

    Описание

    Мы всё знаем о Питере Паркере. Он спас город, влюбился, а потом спасал город снова и снова… Но все это — в нашем измерении. А что если в результате работы гигантского коллайдера откроется окно из одного измерения в другое? Найдется ли в нем свой Человек-паук? И как он будет выглядеть? Приготовьтесь к тому, что в разных вселенных могут быть разные Люди-пауки и однажды им придется собраться вместе для борьбы с почти непобедимым врагом.

    Возраст: 6+ (зрителям, достигшим 6 лет)
    Рейтинг MPAA: PG (рекомендуется присутствие родителей)
    Дата мировой премьеры: 6 декабря 2018
    Дата российской премьеры: 13 декабря 2018, WDSSPR
    Цифровой релиз: 7 марта 2019, Sony Pictures Home Entertainment
    Продолжительность: 01: 56: 50
    Качество видео: BDRip
    Перевод: Дублированный (iTunes)
    Субтитры: Русские (полные), английские (полные)
    Видео: AVC/H.264, 1920x1080, ~10 Mbps
    Аудио #1: AC3, 6 ch, 384 Kbps - Русский
    Аудио #2: AC3, 6 ch, 640 Kbps - Английский
    x264 info: frame I: 1856 Avg QP: 17.56 size: 203106
    x264 info: frame P: 51541 Avg QP: 18.17 size: 93458
    x264 info: frame B: 114651 Avg QP: 19.79 size: 31102
    General
    Unique ID : 157502234309766271601536854461883098496 (0x767DD3B21C66F4E04F5DAD9AD3C42580)
    Complete name : D: TempNNMSpiderman.Un.1080p.FS_encoded.mkv
    Format : Matroska
    Format version : Version 4/Version 2
    File size : 9.00 GiB
    Duration : 1h 56mn
    Overall bit rate : 11.0 Mbps
    Movie name : SPIDER_M_ITSV_2018_3D_RMX
    Writing library : Lavf57.71.100
    Video
    ID : 1
    Format : AVC
    Format/Info : Advanced Video Codec
    Format profile : High@L4.1
    Format settings, CABAC : Yes
    Format settings, ReFrames : 4 frames
    Codec ID : V_MPEG4/ISO/AVC
    Duration : 1h 56mn
    Bit rate : 10 000 Kbps
    Width : 1 920 pixels
    Height : 1 080 pixels
    Display aspect ratio : 16: 9
    Frame rate mode : Constant
    Frame rate : 23.976 fps
    Color space : YUV
    Chroma subsampling : 4: 2: 0
    Bit depth : 8 bits
    Scan type : Progressive
    Bits/(Pixel*Frame) : 0.201
    Stream size : 7.98 GiB (89%)
    Writing library : x264 core 157 r2935 545de2f
    Encoding settings : cabac=1/ref=4/deblock=1: -3: -3/analyse=0x3: 0x113/me=umh/subme=10/psy=1/psy_rd=1.05: 0.10/mixed_ref=1/me_range=24/chroma_me=1/trellis=2/8x8dct=1/cqm=0/deadzone=21, 11/fast_pskip=0/chroma_qp_offset=-3/threads=5/lookahead_threads=1/sliced_threads=0/nr=0/decimate=0/interlaced=0/bluray_compat=0/constrained_intra=0/bframes=6/b_pyramid=2/b_adapt=2/b_bias=0/direct=1/weightb=1/open_gop=0/weightp=2/keyint=240/keyint_min=24/scenecut=40/intra_refresh=0/rc=2pass/mbtree=0/bitrate=10000/ratetol=1.0/qcomp=0.70/qpmin=3/qpmax=69/qpstep=4/cplxblur=20.0/qblur=0.5/ip_ratio=1.40/pb_ratio=1.30/aq=2: 1.00
    Default : Yes
    Forced : No
    Audio #1
    ID : 2
    Format : AC-3
    Format/Info : Audio Coding 3
    Mode extension : CM (complete main)
    Format settings, Endianness : Big
    Codec ID : A_AC3
    Duration : 1h 56mn
    Bit rate mode : Constant
    Bit rate : 384 Kbps
    Channel(s) : 6 channels
    Channel positions : Front: L C R, Side: L R, LFE
    Sampling rate : 48.0 KHz
    Bit depth : 16 bits
    Compression mode : Lossy
    Stream size : 321 MiB (3%)
    Language : Russian
    Default : Yes
    Forced : No
    Audio #2
    ID : 3
    Format : AC-3
    Format/Info : Audio Coding 3
    Mode extension : CM (complete main)
    Format settings, Endianness : Big
    Codec ID : A_AC3
    Duration : 1h 56mn
    Bit rate mode : Constant
    Bit rate : 640 Kbps
    Channel(s) : 6 channels
    Channel positions : Front: L C R, Side: L R, LFE
    Sampling rate : 48.0 KHz
    Bit depth : 16 bits
    Compression mode : Lossy
    Stream size : 535 MiB (6%)
    Language : English
    Default : No
    Forced : No
    Text #1
    ID : 4
    Format : UTF-8
    Codec ID : S_TEXT/UTF8
    Codec ID/Info : UTF-8 Plain Text
    Title : Full iTunes
    Language : Russian
    Default : Yes
    Forced : No
    Text #2
    ID : 5
    Format : UTF-8
    Codec ID : S_TEXT/UTF8
    Codec ID/Info : UTF-8 Plain Text
    Title : Full iTunes
    Language : English
    Default : No
    Forced : No

    Скриншоты для ознакомления



    Все одноименные релизы в Клубе
    Время раздачи: 24/7 до первых 5-и скачавших

    Человек-паук: Через вселенные/Spider-Man: Into the Spider-Verse (2018) BDRip 3D [H.264/1080p] [вертикальная анаморфная стереопара] [hand made 16:9]
    Рейтинг →
     (голосов: 1, оценка 4/5, голосовать можно 1 раз )

    Другие торренты по теме:

  • Человек-паук: Через вселенные / Spider-Man: Into the Spider-Verse (2018) CamRip [AD]
  • Человек-паук: Через вселенные / Spider-Man: Into the Spider-Verse (2018) WEBRip
  • Человек-паук: Через вселенные / Spider-Man: Into the Spider-Verse (2018) WEB-DL [H.264 / 1080p-LQ]
  • Человек-паук: Через вселенные / Spider-Man: Into the Spider-Verse (2018) UHDRip [H.265 / 2160p-LQ] [10-bit]
  • Человек-паук: Через вселенные / Spider-Man: Into the Spider-Verse (2018) UHD BDRemux [H.265 / 2160p] [4K, HDR, 10-bit]
  • Человек-паук: Через вселенные / Spider-Man: Into the Spider-Verse (2018) BDRip [H.264 / 1080p]
  • Человек-паук: Через вселенные / Spider-Man: Into the Spider-Verse (2018) BDRip [H.264 / 720p]
  • Человек-паук: Через вселенные / Spider-Man: Into the Spider-Verse (2018) HDRip


    • Комментарии (0):

      Информация

      Информация

        Посетители, находящиеся в группе Гости, не могут оставлять комментарии в данной новости.

        ↓ Меню




        ↓ Опрос

        Вы добавили сайт в закладки?
        Да
        Нет


        Популярное