.
Авторизация | Регистрация

bitok.xyz

» » Аквамен / Aquaman (2018) BDRip 3D [H.264 / 1080p] [вертикальная анаморфная стереопара] [hand made 16:9] торрент скачать бесплатно


    Аквамен / Aquaman (2018) BDRip 3D [H.264 / 1080p] [вертикальная анаморфная стереопара] [hand made 16:9] торрент скачать бесплатно

    Дата: 21-03-2019, 05:00 | .torrent скачали: 116

    Аквамен / Aquaman (2018) BDRip 3D [H.264 / 1080p] [вертикальная анаморфная стереопара] [hand made 16:9]Производство: Австралия, США/DC Comics, DC Entertainment, Panoramic Pictures
    Жанр: Фантастика, Фэнтези, Боевик, Приключения
    Режиссер: Джеймс Ван
    Продюсер: Хадиджа Алами, Джон Берг, Роб Кауэн

    Актеры
    Джейсон Момоа, Эмбер Хёрд, Уиллем Дефо, Патрик Уилсон, Николь Кидман, Дольф Лундгрен, Яхья Абдул-Матин II, Темуэра Моррисон, Луди Юэнь, Майкл Бич

    Описание

    Действие фильма разворачивается в необъятном и захватывающем подводном мире семи морей, а сюжет знакомит зрителей с историей происхождения получеловека-полуатланта Артура Карри и ключевыми событиями его жизни — теми, что заставят его не только столкнуться с самим собой, но и выяснить, достоин ли он быть тем, кем ему суждено… царем!

    Возраст: 12+ (зрителям, достигшим 12 лет)
    Рейтинг MPAA: PG-13 (детям до 13 лет просмотр нежелателен)
    Дата мировой премьеры: 26 ноября 2018
    Дата премьеры в России: 13 декабря 2018, Каро-Премьер

    Релиз от: SergeyAms
    Продолжительность: 02: 23: 21
    Качество видео: BDRip 3D
    Перевод: Дублированный (Лицензия BD CEE)
    Субтитры: Русские (форс., полные), английские (полные)
    Видео: AVC/H.264, 1920x1080, ~10 Mbps
    Аудио #1: AC3, 6 Ch, 448 Kbps - Русский
    Аудио #2: AC3, 6 Ch, 640 kbps - Английский

    x264 info: frame I: 1760 Avg QP: 17.78 size: 223944
    x264 info: frame P: 57903 Avg QP: 19.87 size: 89869
    x264 info: frame B: 146514 Avg QP: 21.94 size: 35165
    Unique ID : 226744561903567077173321053026975297757 (0xAA956A05B70C848A8365F09F2EA130DD)
    Complete name : D: TempNNMАквамен.3D.2018.1080p.FS.mkv
    Format : Matroska
    Format version : Version 4/Version 2
    File size : 11.1 GiB
    Duration : 2h 23mn
    Overall bit rate : 11.1 Mbps
    Movie name : AQUAMAN.Title802
    Encoded date : UTC 2019-03-20 04: 36: 26
    Writing application : mkvmerge v9.8.0 (\'Kuglblids\') 64bit
    Writing library : libebml v1.3.4 + libmatroska v1.4.5
    Video
    ID : 1
    Format : AVC
    Format/Info : Advanced Video Codec
    Format profile : High@L4.1
    Format settings, CABAC : Yes
    Format settings, ReFrames : 4 frames
    Codec ID : V_MPEG4/ISO/AVC
    Duration : 2h 23mn
    Bit rate : 10 000 Kbps
    Width : 1 920 pixels
    Height : 1 080 pixels
    Display aspect ratio : 16: 9
    Frame rate mode : Constant
    Frame rate : 23.976 fps
    Color space : YUV
    Chroma subsampling : 4: 2: 0
    Bit depth : 8 bits
    Scan type : Progressive
    Bits/(Pixel*Frame) : 0.201
    Stream size : 9.79 GiB (88%)
    Writing library : x264 core 157 r2935 545de2f
    Encoding settings : cabac=1/ref=4/deblock=1: -3: -3/analyse=0x3: 0x113/me=umh/subme=10/psy=1/psy_rd=1.05: 0.10/mixed_ref=1/me_range=24/chroma_me=1/trellis=2/8x8dct=1/cqm=0/deadzone=21, 11/fast_pskip=0/chroma_qp_offset=-3/threads=5/lookahead_threads=1/sliced_threads=0/nr=0/decimate=0/interlaced=0/bluray_compat=0/constrained_intra=0/bframes=7/b_pyramid=2/b_adapt=2/b_bias=0/direct=1/weightb=1/open_gop=0/weightp=2/keyint=240/keyint_min=24/scenecut=40/intra_refresh=0/rc=2pass/mbtree=0/bitrate=10000/ratetol=1.0/qcomp=0.70/qpmin=3/qpmax=69/qpstep=4/cplxblur=20.0/qblur=0.5/ip_ratio=1.40/pb_ratio=1.30/aq=2: 1.00
    Default : Yes
    Forced : No
    Audio #1
    ID : 2
    Format : AC-3
    Format/Info : Audio Coding 3
    Mode extension : CM (complete main)
    Format settings, Endianness : Big
    Codec ID : A_AC3
    Duration : 2h 23mn
    Bit rate mode : Constant
    Bit rate : 448 Kbps
    Channel(s) : 6 channels
    Channel positions : Front: L C R, Side: L R, LFE
    Sampling rate : 48.0 KHz
    Bit depth : 16 bits
    Compression mode : Lossy
    Stream size : 459 MiB (4%)
    Language : Russian
    Default : Yes
    Forced : No
    Audio #2
    ID : 3
    Format : AC-3
    Format/Info : Audio Coding 3
    Mode extension : CM (complete main)
    Format settings, Endianness : Big
    Codec ID : A_AC3
    Duration : 2h 23mn
    Bit rate mode : Constant
    Bit rate : 640 Kbps
    Channel(s) : 6 channels
    Channel positions : Front: L C R, Side: L R, LFE
    Sampling rate : 48.0 KHz
    Bit depth : 16 bits
    Compression mode : Lossy
    Stream size : 656 MiB (6%)
    Language : English
    Default : No
    Forced : No
    Text #1
    ID : 4
    Format : UTF-8
    Codec ID : S_TEXT/UTF8
    Codec ID/Info : UTF-8 Plain Text
    Title : Forced
    Language : Russian
    Default : Yes
    Forced : Yes
    Text #2
    ID : 5
    Format : UTF-8
    Codec ID : S_TEXT/UTF8
    Codec ID/Info : UTF-8 Plain Text
    Title : Full
    Language : Russian
    Default : No
    Forced : No
    Text #3
    ID : 6
    Format : UTF-8
    Codec ID : S_TEXT/UTF8
    Codec ID/Info : UTF-8 Plain Text
    Language : English
    Default : No
    Forced : No

    Скриншоты для ознакомления



    Все одноименные релизы в Клубе
    Время раздачи: 24/7 (до появления первых 3-5 скачавших)


    Аквамен/Aquaman (2018) BDRip 3D [H.264/1080p] [вертикальная анаморфная стереопара] [hand made 16:9]
    Рейтинг →
     (голосов: 1, оценка 5/5, голосовать можно 1 раз )

    Другие торренты по теме:

  • Аквамен / Aquaman (2018) CAMRip [MVO] [AD]
  • Аквамен / Aquaman (2018) TS [MVO, AD]
  • Аквамен / Aquaman (2018) TS [AD]
  • Аквамен / Aquaman (2018) WEBRip [H.264 / 1080p] [MVO]
  • Аквамен / Aquaman (2018) WEBRip [H.264 / 720p] [MVO]
  • Аквамен / Aquaman (2018) WEBRip [H.264 / 1080p-LQ] [MVO]
  • Аквамен / Aquaman (2018) WEBRip [MVO]
  • Аквамен / Aquaman (2018) WEBRip [H.264 / 720p-LQ] [MVO]


    • Комментарии (0):

      Информация

      Информация

        Посетители, находящиеся в группе Гости, не могут оставлять комментарии в данной новости.

        ↓ Меню




        ↓ Опрос

        Вы добавили сайт в закладки?
        Да
        Нет


        Популярное