.
Авторизация | Регистрация

bitok.xyz

» » Мёртвый космос 3 / Dead Space 3 (2019) HDRip [H.264 / 1080p-LQ] [EN / RU, EN Sub] торрент скачать бесплатно


    Мёртвый космос 3 / Dead Space 3 (2019) HDRip [H.264 / 1080p-LQ] [EN / RU, EN Sub] торрент скачать бесплатно

    Дата: 22-03-2019, 05:00 | .torrent скачали: 7

    Мёртвый космос 3 / Dead Space 3 (2019) HDRip [H.264 / 1080p-LQ] [EN / RU, EN Sub]Жанр : Игровой фильм, Ужасы, Фантастика
    Производство: Никита Brandon Heat Хромов
    Описание :
    Вашему вниманию предлагается игровой фильм по третьей части игры Dead Space.
    Да, таких фильмов сейчас много и снимают их все, кому не лень. Отличие моего от остальных в том, что я делаю упор на историю, а не расчленёнку и жёсткую вырезку сюжета, дабы уложиться в телевизионные 1.5-2 часа.
    За основу перевода была взята официальная локализация, но перевод был переработан и откорректирован. Выправлен русский язык и заново переведены многие места.
    Релиз от: Никита Brandon Heat Хромов
    Продолжительность: 02: 38: 55
    Качество видео: HDRip
    Перевод: отсутствует
    Язык озвучки: Английский
    Автор перевода: Никита Brandon Heat Хромов
    Субтитры: русские (выставлены по умолчанию), английские, язык Обелиска
    Видео: AVC/H.264, 1920x1080, ~4001 Kbps
    Аудио 1: AC3, 2 ch, 448 Kbps - Английский
    Аудио 2: AC3, 6 ch, 640 Kbps - Английский
    General
    Unique ID : 211022637191029360397840612097676169454 (0x9EC17B498BD6FC5290A4F864FFF650EE)
    Format : Matroska
    Format version : Version 4
    File size : 5.65 GiB
    Duration : 2 h 38 min
    Overall bit rate : 5 093 kb/s
    Movie name : Dead Space 3 by Никита Brandon Heat Хромов
    Encoded date : UTC 2019-03-16 07: 15: 31
    Writing application : mkvmerge v8.3.0 (\'Over the Horizon\') 64bit
    Writing library : libebml v1.3.1 + libmatroska v1.4.2
    Attachments : arial.ttf/arialbd.ttf/ariali.ttf/DeadSpace Unitology.ttf/MyriadPro-Bold.otf
    Video
    ID : 1
    Format : AVC
    Format/Info : Advanced Video Codec
    Format profile : High@L5
    Format settings : CABAC/9 Ref Frames
    Format settings, CABAC : Yes
    Format settings, ReFrames : 9 frames
    Codec ID : V_MPEG4/ISO/AVC
    Duration : 2 h 38 min
    Bit rate : 4 001 kb/s
    Width : 1 920 pixels
    Height : 1 080 pixels
    Display aspect ratio : 16: 9
    Frame rate mode : Constant
    Frame rate : 29.970 (30000/1001) FPS
    Color space : YUV
    Chroma subsampling : 4: 2: 0
    Bit depth : 8 bits
    Scan type : Progressive
    Bits/(Pixel*Frame) : 0.064
    Stream size : 4.44 GiB (79%)
    Title : Dead Space 3
    Writing library : x264 core 157 r2935 545de2f
    Encoding settings : cabac=1/ref=9/deblock=1: -3: -3/analyse=0x3: 0x113/me=umh/subme=10/psy=1/psy_rd=1.05: 0.10/mixed_ref=1/me_range=48/chroma_me=1/trellis=2/8x8dct=1/cqm=0/deadzone=21, 11/fast_pskip=0/chroma_qp_offset=-3/threads=9/lookahead_threads=1/sliced_threads=0/nr=0/decimate=1/interlaced=0/bluray_compat=0/constrained_intra=0/bframes=6/b_pyramid=2/b_adapt=2/b_bias=0/direct=3/weightb=1/open_gop=0/weightp=2/keyint=300/keyint_min=30/scenecut=40/intra_refresh=0/rc_lookahead=60/rc=2pass/mbtree=1/bitrate=4001/ratetol=1.0/qcomp=0.70/qpmin=3/qpmax=69/qpstep=4/cplxblur=20.0/qblur=0.5/ip_ratio=1.40/aq=2: 1.00
    Language : English
    Default : Yes
    Forced : Yes
    Color range : Limited
    Color primaries : BT.709
    Transfer characteristics : BT.709
    Matrix coefficients : BT.709
    Audio #1
    ID : 2
    Format : AC-3
    Format/Info : Audio Coding 3
    Commercial name : Dolby Digital
    Codec ID : A_AC3
    Duration : 2 h 38 min
    Bit rate mode : Constant
    Bit rate : 448 kb/s
    Channel(s) : 2 channels
    Channel layout : L R
    Sampling rate : 48.0 kHz
    Frame rate : 31.250 FPS (1536 SPF)
    Bit depth : 16 bits
    Compression mode : Lossy
    Stream size : 509 MiB (9%)
    Title : DD 2.0 (AC3)
    Language : English
    Service kind : Complete Main
    Default : Yes
    Forced : No
    Audio #2
    ID : 3
    Format : AC-3
    Format/Info : Audio Coding 3
    Commercial name : Dolby Digital
    Codec ID : A_AC3
    Duration : 2 h 38 min
    Bit rate mode : Constant
    Bit rate : 640 kb/s
    Channel(s) : 6 channels
    Channel layout : L R C LFE Ls Rs
    Sampling rate : 48.0 kHz
    Frame rate : 31.250 FPS (1536 SPF)
    Bit depth : 16 bits
    Compression mode : Lossy
    Stream size : 727 MiB (13%)
    Title : DD 5.1 (AC3)
    Language : English
    Service kind : Complete Main
    Default : No
    Forced : No
    Text #1
    ID : 4
    Format : ASS
    Codec ID : S_TEXT/ASS
    Codec ID/Info : Advanced Sub Station Alpha
    Duration : 2 h 24 min
    Bit rate : 79 b/s
    Count of elements : 1151
    Compression mode : Lossless
    Stream size : 84.7 KiB (0%)
    Title : Full/Полные
    Language : English
    Default : No
    Forced : No
    Text #2
    ID : 5
    Format : ASS
    Codec ID : S_TEXT/ASS
    Codec ID/Info : Advanced Sub Station Alpha
    Duration : 2 h 24 min
    Bit rate : 112 b/s
    Count of elements : 1176
    Compression mode : Lossless
    Stream size : 119 KiB (0%)
    Title : Full/Полные
    Language : Russian
    Default : Yes
    Forced : No
    Text #3
    ID : 6
    Format : ASS
    Codec ID : S_TEXT/ASS
    Codec ID/Info : Advanced Sub Station Alpha
    Duration : 2 h 24 min
    Bit rate : 79 b/s
    Count of elements : 1150
    Compression mode : Lossless
    Stream size : 84.6 KiB (0%)
    Title : Marker language/Язык Обелиска
    Default : No
    Forced : No


    Мёртвый космос 3/Dead Space 3 (2019) HDRip [H.264/1080p-LQ] [EN/RU, EN Sub]
    Рейтинг →
     (голосов: 1, оценка 3/5, голосовать можно 1 раз )

    Другие торренты по теме:

  • Мёртвый космос / Dead Space v1.0.0.223 (2015) HDRip скачать через торрент бесплатно
  • Брайан Эвенсон | Мёртвый космос: Мученик (2010) [FB2]
  • Мёртвый космос 2 / Dead Space 2 (2016) HDRip [H.264 / 1080p-LQ]
  • Мёртвый космос / Dead Space v1.0.0.223 (2015) HDRip [H.264 / 1080p-LQ]
  • Мёртвый космос Энзим / Dead Space Ignition (2017) HDRip [H.264 / 1080p-LQ]
  • Мёртвый космос / Dead Space animated comics (2008 / 2019) WEB-DL [H.264 / 720p-LQ] [Uncut, Remastered, Uncensored] [PR]


    • Комментарии (0):

      Информация

      Информация

        Посетители, находящиеся в группе Гости, не могут оставлять комментарии в данной новости.

        ↓ Меню




        ↓ Опрос

        Вы добавили сайт в закладки?
        Да
        Нет


        Популярное