.
Авторизация | Регистрация

bitok.xyz

» » Терминатор 2: Судный день / Terminator 2: Judgment Day (1991) Hybrid [H.264 / 720p] [hand made 16:9] торрент скачать бесплатно


    Терминатор 2: Судный день / Terminator 2: Judgment Day (1991) Hybrid [H.264 / 720p] [hand made 16:9] торрент скачать бесплатно

    Дата: 26-03-2019, 05:00 | .torrent скачали: 0

    Терминатор 2: Судный день / Terminator 2: Judgment Day (1991) Hybrid [H.264 / 720p] [hand made 16:9]Производство: США, Франция/Carolco Pictures, Pacific Western, Lightstorm Entertainment, Canal+
    Жанр: Фантастика, Боевик, Триллер
    Режиссер: Джеймс Кэмерон

    Актеры
    Арнольд Шварценеггер, Линда Хэмилтон, Эдвард Ферлонг, Роберт Патрик, Эрл Боэн, Джо Мортон, С. Ипейта Меркерсон, Кастуло Герра, Дэнни Кукси, Дженетт Голдстин

    Описание

    Война роботов и людей продолжается. Казалось, что человечество обречено на полное уничтожение. Но благодаря своему лидеру Джону Коннору у сопротивления появляется шанс победить. Не имея возможности убить Джона в реальном времени, роботы отправляют в прошлое свою самую совершенную разработку - терминатора-убийцу из жидкого металла, способного принимать любое обличье. Теперь, чтобы победить в будущем юному Джону Коннору надо выжить в настоящем. Его шансы существенно повышаются, когда на помощь приходит перепрограммированный сопротивлением терминатор предыдущего поколения. Оба робота вступают в смертельный бой, от исхода которого зависит судьба человечества.

    Возраст: 18+ (зрителям, достигшим 18 лет. запрещено для детей)
    Рейтинг MPAA: R (лицам до 17 лет обязательно присутствие взрослого)
    Продолжительность: 02: 16: 35
    Качество видео: Hybrid 720p
    Перевод: Многоголосый, Двухголосый, Авторский
    Субтитры: Русские, Английские
    Видео: AVC/H.264, 1280x720, 9425 kbps, 23.976 fps
    Аудио 1: AC3, 6 ch, 448 kbps - Русский, MVO (Twister)
    Аудио 2: AC3, 2 ch, 224 kbps - Русский, MVO (Кинотеатральный)
    Аудио 3: AC3, 6 ch, 448 kbps - Русский, MVO (ОРТ)
    Аудио 4: AC3, 2 ch, 192 kbps - Русский, MVO (РТР)
    Аудио 5: AC3, 2 ch, 192 kbps - Русский, DVO (НТВ)
    Аудио 6: AC3, 2 ch, 160 kbps - Русский, AVO (Гаврилов)
    Аудио 7: AC3, 6 ch, 640 kbps - Английский
    Внимание! Экспериментальный релиз, только для поклонников фильма и open matte.

    General
    Unique ID : 227450196351044353365587510679003570590 (0xAB1D507C943349CD9485A44DF3F5A19E)
    Complete name : D: Т2Terminator.2.Judgment.Day.1991.Custom.Open.Matte.720p.mkv
    Format : Matroska
    Format version : Version 4
    File size : 11.4 GiB
    Duration : 2 h 16 min
    Overall bit rate : 12.0 Mb/s
    Movie name : Terminator 2: Judgment Day (1991)
    Encoded date : UTC 2017-12-11 22: 08: 34
    Writing application : mkvmerge v17.0.0 (\'Be Ur Friend\') 64-bit
    Writing library : libebml v1.3.5 + libmatroska v1.4.8
    Video
    ID : 1
    Format : AVC
    Format/Info : Advanced Video Codec
    Format profile : High@L4.1
    Format settings : CABAC/9 Ref Frames
    Format settings, CABAC : Yes
    Format settings, ReFrames : 9 frames
    Codec ID : V_MPEG4/ISO/AVC
    Duration : 2 h 16 min
    Bit rate : 9 425 kb/s
    Width : 1 280 pixels
    Height : 720 pixels
    Display aspect ratio : 16: 9
    Frame rate mode : Constant
    Frame rate : 23.976 (24000/1001) FPS
    Color space : YUV
    Chroma subsampling : 4: 2: 0
    Bit depth : 8 bits
    Scan type : Progressive
    Bits/(Pixel*Frame) : 0.427
    Stream size : 8.99 GiB (79%)
    Writing library : x264 core 152 r2851 ba24899
    Encoding settings : cabac=1/ref=9/deblock=1: -3: -2/analyse=0x3: 0x113/me=umh/subme=10/psy=1/psy_rd=1.00: 0.00/mixed_ref=1/me_range=32/chroma_me=1/trellis=2/8x8dct=1/cqm=0/deadzone=21, 11/fast_pskip=1/chroma_qp_offset=-2/threads=8/lookahead_threads=1/sliced_threads=0/nr=0/decimate=1/interlaced=0/bluray_compat=0/constrained_intra=0/bframes=7/b_pyramid=2/b_adapt=2/b_bias=0/direct=1/weightb=1/open_gop=0/weightp=2/keyint=240/keyint_min=23/scenecut=40/intra_refresh=0/rc_lookahead=40/rc=crf/mbtree=0/crf=18.5/qcomp=0.60/qpmin=0/qpmax=69/qpstep=4/vbv_maxrate=50000/vbv_bufsize=62500/crf_max=0.0/nal_hrd=none/filler=0/ip_ratio=1.40/pb_ratio=1.30/aq=1: 1.00
    Language : English
    Default : Yes
    Forced : No
    Color range : Limited
    Color primaries : BT.709
    Transfer characteristics : BT.709
    Matrix coefficients : BT.709
    Audio #1
    ID : 2
    Format : AC-3
    Format/Info : Audio Coding 3
    Commercial name : Dolby Digital
    Codec ID : A_AC3
    Duration : 2 h 16 min
    Bit rate mode : Constant
    Bit rate : 448 kb/s
    Channel(s) : 6 channels
    Channel layout : L R C LFE Ls Rs
    Sampling rate : 48.0 kHz
    Frame rate : 31.250 FPS (1536 SPF)
    Bit depth : 16 bits
    Compression mode : Lossy
    Stream size : 438 MiB (4%)
    Title : Twister
    Language : Russian
    Service kind : Complete Main
    Default : Yes
    Forced : No
    Audio #2
    ID : 3
    Format : AC-3
    Format/Info : Audio Coding 3
    Commercial name : Dolby Digital
    Codec ID : A_AC3
    Duration : 2 h 16 min
    Bit rate mode : Constant
    Bit rate : 224 kb/s
    Channel(s) : 2 channels
    Channel layout : L R
    Sampling rate : 48.0 kHz
    Frame rate : 31.250 FPS (1536 SPF)
    Bit depth : 16 bits
    Compression mode : Lossy
    Stream size : 219 MiB (2%)
    Title : Cinema
    Language : Russian
    Service kind : Complete Main
    Default : No
    Forced : No
    Audio #3
    ID : 4
    Format : AC-3
    Format/Info : Audio Coding 3
    Commercial name : Dolby Digital
    Codec ID : A_AC3
    Duration : 2 h 16 min
    Bit rate mode : Constant
    Bit rate : 448 kb/s
    Channel(s) : 6 channels
    Channel layout : L R C LFE Ls Rs
    Sampling rate : 48.0 kHz
    Frame rate : 31.250 FPS (1536 SPF)
    Bit depth : 16 bits
    Compression mode : Lossy
    Stream size : 438 MiB (4%)
    Title : ORT
    Language : Russian
    Service kind : Complete Main
    Default : No
    Forced : No
    Audio #4
    ID : 5
    Format : AC-3
    Format/Info : Audio Coding 3
    Commercial name : Dolby Digital
    Codec ID : A_AC3
    Duration : 2 h 16 min
    Bit rate mode : Constant
    Bit rate : 192 kb/s
    Channel(s) : 2 channels
    Channel layout : L R
    Sampling rate : 48.0 kHz
    Frame rate : 31.250 FPS (1536 SPF)
    Bit depth : 16 bits
    Compression mode : Lossy
    Stream size : 188 MiB (2%)
    Title : RTR
    Language : Russian
    Service kind : Complete Main
    Default : No
    Forced : No
    Audio #5
    ID : 6
    Format : AC-3
    Format/Info : Audio Coding 3
    Commercial name : Dolby Digital
    Codec ID : A_AC3
    Duration : 2 h 16 min
    Bit rate mode : Constant
    Bit rate : 192 kb/s
    Channel(s) : 2 channels
    Channel layout : L R
    Sampling rate : 48.0 kHz
    Frame rate : 31.250 FPS (1536 SPF)
    Bit depth : 16 bits
    Compression mode : Lossy
    Stream size : 188 MiB (2%)
    Title : NTV
    Language : Russian
    Service kind : Complete Main
    Default : No
    Forced : No
    Audio #6
    ID : 7
    Format : AC-3
    Format/Info : Audio Coding 3
    Commercial name : Dolby Digital
    Codec ID : A_AC3
    Duration : 2 h 16 min
    Bit rate mode : Constant
    Bit rate : 160 kb/s
    Channel(s) : 2 channels
    Channel layout : L R
    Sampling rate : 48.0 kHz
    Frame rate : 31.250 FPS (1536 SPF)
    Bit depth : 16 bits
    Compression mode : Lossy
    Stream size : 156 MiB (1%)
    Title : Gavrilov
    Language : Russian
    Service kind : Complete Main
    Default : No
    Forced : No
    Audio #7
    ID : 8
    Format : AC-3
    Format/Info : Audio Coding 3
    Commercial name : Dolby Digital
    Codec ID : A_AC3
    Duration : 2 h 16 min
    Bit rate mode : Constant
    Bit rate : 640 kb/s
    Channel(s) : 6 channels
    Channel layout : L R C LFE Ls Rs
    Sampling rate : 48.0 kHz
    Frame rate : 31.250 FPS (1536 SPF)
    Bit depth : 16 bits
    Compression mode : Lossy
    Stream size : 625 MiB (5%)
    Language : English
    Service kind : Complete Main
    Default : No
    Forced : No
    Text #1
    ID : 9
    Format : UTF-8
    Codec ID : S_TEXT/UTF8
    Codec ID/Info : UTF-8 Plain Text
    Language : Russian
    Default : No
    Forced : No
    Text #2
    ID : 10
    Format : UTF-8
    Codec ID : S_TEXT/UTF8
    Codec ID/Info : UTF-8 Plain Text
    Language : English
    Default : No
    Forced : No
    Menu
    00: 00: 00.000 : : Prologue
    00: 03: 35.382 : : Main Titles
    00: 05: 33.917 : : Terminator Arrives
    00: 10: 30.630 : : T-1000 Arrives
    00: 12: 28.581 : : Meet John Connor
    00: 15: 28.803 : : T-1000 Visits Voights
    00: 18: 05.126 : : Sanity Review
    00: 24: 29.093 : : Target Acquired
    00: 30: 46.136 : : Canal Chase
    00: 34: 26.231 : : Time Out
    00: 39: 31.744 : : Photos
    00: 44: 33.671 : : Pescadero State Hospital
    00: 49: 29.717 : : Lewis the Guard
    00: 52: 59.676 : : Sarah Breaks Out
    00: 56: 37.102 : : Come with Me If You Want to Live
    01: 01: 10.333 : : Night Repairs
    01: 04: 55.767 : : Heading South
    01: 08: 56.299 : : Salceda\'s Camp
    01: 12: 42.483 : : Fathers and Son
    01: 17: 02.743 : : Nuclear Nighmare
    01: 21: 16.455 : : Sarah\'s Solution
    01: 26: 55.418 : : Cahnging the Way It Goes
    01: 29: 44.462 : : Target: Cyberdyne
    01: 34: 25.743 : : Company
    01: 36: 31.953 : : Human Casualties: 0.0
    01: 38: 53.719 : : SWAT Offensive
    01: 42: 45.868 : : I\'ll Be Back
    01: 46: 37.474 : : Freeway Chase
    01: 49: 16.466 : : Tanker Chase
    01: 53: 21.253 : : Fire and Ice
    01: 56: 53.214 : : Sticking Together
    01: 58: 39.612 : : Deep into the Steel Mill
    02: 01: 11.180 : : Terminator Skewered
    02: 04: 19.452 : : Two Sarahs
    02: 07: 59.964 : : One More Chip
    02: 12: 33.612 : : End Titles


    Терминатор 2: Судный день/Terminator 2: Judgment Day (1991) Hybrid [H.264/720p] [hand made 16:9]
    Рейтинг →
     (голосов: 1, оценка 5/5, голосовать можно 1 раз )

    Другие торренты по теме:

  • Терминатор 2: Судный день / Terminator 2: Judgment Day (1991) BDRip [1080p] [Extended Special Edition] [hand made 60fps] скачать через торрент бесплатно
  • Терминатор 2: Судный день / Terminator 2: Judgment Day (Directors Cut) (1991) LDRip [H.264] [AVO] скачать через торрент бесплатно
  • Терминатор 2: Судный день / Terminator 2: Judgment Day (1991) HDRip [Directors Cut] скачать через торрент бесплатно
  • Терминатор 2: Судный день / Terminator 2: Judgment Day (1991) HDRip [Skynet Edition] [AVO] скачать через торрент бесплатно
  • Терминатор 2: Судный день / Terminator 2: Judgment Day (1991) BDRip [H.264 / 1080p-LQ] [Directors Cut] скачать через торрент бесплатно
  • Терминатор 2: Судный день / Terminator 2: Judgment Day (1991) BDRip [H.264 / 1080p] [Skynet Edition] скачать через торрент бесплатно
  • Терминатор 2: Судный день / Terminator 2: Judgment Day (1991) BDRip [H.264 / 1080p-LQ] [Directors Cut / Special Edition] скачать через торрент бесплатно
  • Терминатор 2: Судный день / Terminator 2: Judgment Day (1991) BDRip [H.265 / 1080p] [Special Edition] [Main10] [hand made remaster]


    • Комментарии (0):

      Информация

      Информация

        Посетители, находящиеся в группе Гости, не могут оставлять комментарии в данной новости.

        ↓ Меню




        ↓ Опрос

        Вы добавили сайт в закладки?
        Да
        Нет


        Популярное