.
Авторизация | Регистрация

bitok.xyz

» » Возвращение на родину / Repatriation (2017) WEBRip [H.264 / 720p-LQ] [MVO] [AD] торрент скачать бесплатно


    Возвращение на родину / Repatriation (2017) WEBRip [H.264 / 720p-LQ] [MVO] [AD] торрент скачать бесплатно

    Дата: 27-03-2019, 05:00 | .torrent скачали: 0

    Возвращение на родину / Repatriation (2017) WEBRip [H.264 / 720p-LQ] [MVO] [AD]Производство: США/RBG Films
    Жанр: Драма, Мелодрама
    Режиссер: Дуглас Мюллер
    Продюсер: Malinda DeRouen, Дуглас Мюллер, Райан Бартон-Гримли

    Актеры
    Райан Бартон-Гримли, Джереми Кларк, Джесс Мерсер, Джонатен Викхольм, Антонио Брунетти, Джон Орантес, Джон С. Боулс, Мэтью Брамлоу, Рэндалл Кропп, Мэтью Кроу

    Описание

    Увидев Чэда в военной униформе, каждый его друг и знакомый приглашал вместе отпраздновать возвращение. В одном из баров, Чэд встретил бывшую знакомую, Камиллу, которая еще в старших классах была влюблена в него. Вместе они продолжают ходить по разным заведением. Как закончится вечер военного и попадет ли он наконец-то домой?

    Дата мировой премьеры: 20 января 2017
    Продолжительность: 01: 13: 01
    Качество видео: WEBRip
    Перевод: Многоголосый закадровый (Синема Ус)
    Субтитры: Отсутствуют
    Реклама: Присутствуют вставки текстовой, аудио и видео рекламы
    Видео: AVC/H.264, 1280x544, (2, 35: 1) ~ 5237 Kbps, 23, 976 fps
    Аудио: AC3, 2 ch, 384 Kbps - Русский

    Общее
    Уникальный идентификатор : 217555492132542839012939716827747051878 (0xA3ABA9E75A082DBCB1E70F55D061E966)
    Полное имя : /Users/Repatriation.2017.WEB-DL.720p.mkv
    Формат : Matroska
    Версия формата : Version 2
    Размер файла : 2, 87 Гбайт
    Продолжительность : 1 ч. 13 м.
    Режим общего битрейта : Переменный
    Общий поток : 5623 Кбит/сек
    Дата кодирования : UTC 2019-03-25 11: 44: 40
    Программа кодирования : mkvmerge v8.3.0 (\'Over the Horizon\') 64bit
    Библиотека кодирования : libebml v1.3.1 + libmatroska v1.4.2
    Видео
    Идентификатор : 1
    Формат : AVC
    Формат/Информация : Advanced Video Codec
    Профиль формата : High@L4.1
    Настройки формата : CABAC/4 Ref Frames
    Параметр CABAC формата : Да
    Параметр ReFrames формата : 4 кадра
    Идентификатор кодека : V_MPEG4/ISO/AVC
    Продолжительность : 1 ч. 13 м.
    Вид битрейта : Переменный
    Битрейт : 5237 Кбит/сек
    Максимальный битрейт : 6000 Кбит/сек
    Ширина : 1280 пикселей
    Высота : 544 пикселя
    Соотношение сторон : 2, 35: 1
    Режим частоты кадров : Постоянный
    Частота кадров : 23, 976 (24000/1001) кадра/сек
    Стандарт вещания : Component
    Цветовое пространство : YUV
    Субдискретизация насыщенности : 4: 2: 0
    Битовая глубина : 8 бит
    Тип развёртки : Прогрессивная
    Бит/(Пиксели*Кадры) : 0.314
    Размер потока : 2, 67 Гбайт (93%)
    Default : Да
    Forced : Нет
    Цветовой диапазон : Limited
    Основные цвета : BT.709
    Характеристики трансфера : BT.709
    Коэффициенты матрицы : BT.709
    Аудио
    Идентификатор : 2
    Формат : AC-3
    Формат/Информация : Audio Coding 3
    Коммерческое название : Dolby Digital
    Идентификатор кодека : A_AC3
    Продолжительность : 1 ч. 13 м.
    Вид битрейта : Постоянный
    Битрейт : 384 Кбит/сек
    Каналы : 2 канала
    Channel layout : L R
    Частота : 48, 0 КГц
    Частота кадров : 31, 250 кадров/сек (1536 SPF)
    Битовая глубина : 16 бит
    Метод сжатия : С потерями
    Размер потока : 201 Мбайт (7%)
    Service kind : Complete Main
    Default : Да
    Forced : Нет

    Скриншоты для ознакомления



    Все одноименные релизы в Клубе
    Время раздачи: 24/7 (круглосуточно) (до появления первых 3-5 скачавших)


    Возвращение на родину/Repatriation (2017) WEBRip [H.264/720p-LQ] [MVO] [AD]
    Рейтинг →
     (голосов: 1, оценка 3/5, голосовать можно 1 раз )

    Другие торренты по теме:

  • Возвращение домой / Возвращение / Homecoming (2018) WEB-DLRip (сезон 1, серии 1-10 из 10) NewStudio
  • Сборник фильмов про полковника Зорина (Возвращение "Святого Луки", Чёрный принц, Версия полковника Зорина) (1970-1978) DVDRip
  • Реальные пацаны. Возвращение (2014) WEB-DLRip [H.264] (серии 1-16) (обновляемая)
  • Реальные пацаны. Возвращение (2014) WEB-DL [720p] (серии 1-16) (обновляемая)
  • Реальные пацаны. Возвращение (2014) WEB-DLRip (Серии 1-16) (Обновляемая)
  • Реальные пацаны. Возвращение (2014) SATRip (Серии 1-16) (Обновляемая)
  • Реальные пацаны. Возвращение (2014) WEB-DLRip [H.264 / 720p-LQ] (сезон 7, серии 1-16 из (123-138 из )) [обновляемая]
  • Gundam G no Reconguista / Гандам: Возвращение на G [2014, TV, 1 из 25] HDTV 720p Raw скачать через торрент бесплатно


    • Комментарии (0):

      Информация

      Информация

        Посетители, находящиеся в группе Гости, не могут оставлять комментарии в данной новости.

        ↓ Меню




        ↓ Опрос

        Вы добавили сайт в закладки?
        Да
        Нет


        Популярное