.
Авторизация | Регистрация

bitok.xyz

» » Когда мы мечтали / Als wir traumten (2015) WEB-DLRip [H.264 / 720p-LQ] [MVO] [AD] торрент скачать бесплатно


    Когда мы мечтали / Als wir traumten (2015) WEB-DLRip [H.264 / 720p-LQ] [MVO] [AD] торрент скачать бесплатно

    Дата: 2-04-2019, 05:00 | .torrent скачали: 1

    Когда мы мечтали / Als wir traumten (2015) WEB-DLRip [H.264 / 720p-LQ] [MVO] [AD]Производство: Германия, Франция/Iskremas Filmproduktion, Als wir traumten, arte France Cinéma, Bayerischer Rundfunk (BR), Cinémadefacto, Iskremas Filmproduktion
    Жанр: Драма
    Режиссер: Андреас Дрезен
    Продюсер: Петер Роммель, Корнелия Акерс, Реми Бура

    Актеры
    Мерлин Розе, Юлиус Ничкофф, Йоэль Басман, Марсель Хойперман, Фредерик Хаселон, Руби О. Фи, Хирон Элиас Красе, Луна Реснер, Том фон Хейманн, Нико Рамон Климанн

    Описание

    Пригород Лейпцига вскоре после распада ГДР. Рико, Даниэль, Пауль и Марк, до недавнего времени бывшие пионеры, теперь растут во вновь воссоединившейся стране.
    Вчерашние правила уже не действуют сегодня. Ночь для них становится днем, а улицы — новой игровой площадкой. Парни уходят в отрыв: они зависают в своем районе, крадут машины, экспериментируют с наркотиками…

    Продолжительность: 01: 59: 10
    Качество видео: WEB-DLRip
    Перевод: Многоголосый закадровый, профессиональный (Синема УС)
    Субтитры: Отсутствуют
    Реклама: Присутствуют вставки текстовой, аудио и видео рекламы
    Видео: AVC/H.264, 1280x692 (1, 85: 1), ~5321 kbps, 23.976 fps
    Аудио: AC3, 2 ch, 384 Kbps - Русский

    Общее
    Уникальный идентификатор : 182595768449292828607794224896838292532 (0x895EAA7303D4D8A0AFAAFD886F6D5434)
    Полное имя : /Users/Als.wir.traumten.2015.WEB-DL.720p.mkv
    Формат : Matroska
    Версия формата : Version 2
    Размер файла : 4, 75 Гбайт
    Продолжительность : 1 ч. 59 м.
    Режим общего битрейта : Переменный
    Общий поток : 5707 Кбит/сек
    Дата кодирования : UTC 2019-04-01 09: 54: 34
    Программа кодирования : mkvmerge v8.3.0 (\'Over the Horizon\') 64bit
    Библиотека кодирования : libebml v1.3.1 + libmatroska v1.4.2
    Видео
    Идентификатор : 1
    Формат : AVC
    Формат/Информация : Advanced Video Codec
    Профиль формата : High@L4.1
    Настройки формата : CABAC/4 Ref Frames
    Параметр CABAC формата : Да
    Параметр ReFrames формата : 4 кадра
    Идентификатор кодека : V_MPEG4/ISO/AVC
    Продолжительность : 1 ч. 59 м.
    Вид битрейта : Переменный
    Битрейт : 5321 Кбит/сек
    Максимальный битрейт : 6000 Кбит/сек
    Ширина : 1280 пикселей
    Высота : 692 пикселя
    Соотношение сторон : 1, 85: 1
    Режим частоты кадров : Постоянный
    Частота кадров : 23, 976 (24000/1001) кадра/сек
    Стандарт вещания : Component
    Цветовое пространство : YUV
    Субдискретизация насыщенности : 4: 2: 0
    Битовая глубина : 8 бит
    Тип развёртки : Прогрессивная
    Бит/(Пиксели*Кадры) : 0.251
    Размер потока : 4, 43 Гбайт (93%)
    Default : Да
    Forced : Нет
    Цветовой диапазон : Limited
    Основные цвета : BT.709
    Характеристики трансфера : BT.709
    Коэффициенты матрицы : BT.709
    Аудио
    Идентификатор : 2
    Формат : AC-3
    Формат/Информация : Audio Coding 3
    Коммерческое название : Dolby Digital
    Идентификатор кодека : A_AC3
    Продолжительность : 1 ч. 59 м.
    Вид битрейта : Постоянный
    Битрейт : 384 Кбит/сек
    Каналы : 2 канала
    Channel layout : L R
    Частота : 48, 0 КГц
    Частота кадров : 31, 250 кадров/сек (1536 SPF)
    Битовая глубина : 16 бит
    Метод сжатия : С потерями
    Размер потока : 327 Мбайт (7%)
    Service kind : Complete Main
    Default : Да
    Forced : Нет

    Скриншоты для ознакомления



    Все одноименные релизы в Клубе
    Время раздачи: 24/7 (круглосуточно) (до появления первых 3-5 скачавших)


    Когда мы мечтали/Als wir traumten (2015) WEB-DLRip [H.264/720p-LQ] [MVO] [AD]
    Рейтинг →
     (голосов: 1, оценка 3/5, голосовать можно 1 раз )

    Другие торренты по теме:

  • Когда животные видят сны / Когда звери мечтают / Nar dyrene drommer / When Animals Dream (2014) BDRip [H.264 / 720p-LQ]
  • Когда я умирала / As I Lay Dying (2013) HDRip
  • Когда играет клавесин (1966) DVDScr
  • Что Где Когда Осенняя серия игр. Игра 4 (2014.09.27) SATRip
  • Когда-то были воинами / Once Were Warriors (1994) BDRip [1080p] скачать через торрент бесплатно
  • Зенон Косидовский | Когда солнце было богом (1968) [DJVU]
  • Когда мужчина любит женщину / When a Man Loves a Woman (1994) HDTVRip [h.264]
  • Когда наступит рассвет (2014) SATRip (Серии 1-4 из 4)


    • Комментарии (0):

      Информация

      Информация

        Посетители, находящиеся в группе Гости, не могут оставлять комментарии в данной новости.

        ↓ Меню




        ↓ Опрос

        Вы добавили сайт в закладки?
        Да
        Нет


        Популярное