.
Авторизация | Регистрация

bitok.xyz

» » Железный Человек / Iron Man (2008) BDRip [H.264 / 1080p] [Hybrid] [hand made 16:9] торрент скачать бесплатно


    Железный Человек / Iron Man (2008) BDRip [H.264 / 1080p] [Hybrid] [hand made 16:9] торрент скачать бесплатно

    Дата: 4-04-2019, 05:00 | .torrent скачали: 1

    Железный Человек / Iron Man (2008) BDRip [H.264 / 1080p] [Hybrid] [hand made 16:9]Производство: США/Marvel Studios Inc., Paramount Pictures
    Жанр: Боевик, Фантастика, Приключения
    Режиссер: Джон Фавро

    Актеры
    Роберт Дауни мл., Джефф Бриджес, Гвинет Пэлтроу, Терренс Ховард, Лесли Бибб, Шон Тоуб, Фаран Таир, Кларк Грегг, Джон Фавро, Саид Бадрия

    Описание

    Миллиардер изобретатель Тони Старк попадает в плен к Афганским террористам, которые пытаются заставить его создать оружие массового поражения. В тайне от своих захватчиков Старк конструирует высокотехнологичную киберброню, которая помогает ему сбежать. Однако по возвращению в США он узнаёт, что в совете директоров его фирмы плетётся заговор, чреватый страшными последствиями. Используя своё последнее изобретение, Старк пытается решить проблемы своей компании радикально…

    Возраст: 12+ (зрителям, достигшим 12 лет)
    Рейтинг MPAA: PG-13 (детям до 13 лет просмотр нежелателен)
    Продолжительность: 02: 06: 10
    Качество видео: BDRip
    Перевод: Дублированный
    Субтитры: русские (форс., полные), английские (полные)
    Видео: AVC/H.264, 1920х1080, ~10 Mbps
    Аудио #1: AC3, 6 ch, 640 kbps - русский
    Аудио #2: AC3, 6 ch, 640 kbps - английский
    Данный формат создан путем покадрового добавления к картинке с Blu Ray сверху и снизу частей изображения с WEB-DL-файла, имевшего формат 16: 9, без кропа или апскейла.

    x264 info: frame I: 1382 Avg QP: 17.62 size: 239813
    x264 info: frame P: 43927 Avg QP: 18.39 size: 90061
    x264 info: frame B: 136190 Avg QP: 19.52 size: 37926
    Unique ID : 250769697984340523191785061281642493166 (0xBCA87CAF43488B1BE9B013830BB2B4EE)
    Complete name : D: TempNNMIron.Man.2008.Hybrid.mkv
    Format : Matroska
    Format version : Version 4/Version 2
    File size : 9.94 GiB
    Duration : 2h 6mn
    Overall bit rate : 11.3 Mbps
    Movie name : Iron Man (2008)
    Writing library : Lavf57.71.100
    Video
    ID : 1
    Format : AVC
    Format/Info : Advanced Video Codec
    Format profile : High@L4.1
    Format settings, CABAC : Yes
    Format settings, ReFrames : 4 frames
    Codec ID : V_MPEG4/ISO/AVC
    Duration : 2h 6mn
    Bit rate : 10 000 Kbps
    Width : 1 920 pixels
    Height : 1 080 pixels
    Display aspect ratio : 16: 9
    Frame rate mode : Constant
    Frame rate : 23.976 fps
    Color space : YUV
    Chroma subsampling : 4: 2: 0
    Bit depth : 8 bits
    Scan type : Progressive
    Bits/(Pixel*Frame) : 0.201
    Stream size : 8.61 GiB (87%)
    Writing library : x264 core 157 r2935 545de2f
    Encoding settings : cabac=1/ref=4/deblock=1: -3: -3/analyse=0x3: 0x113/me=umh/subme=10/psy=1/psy_rd=1.05: 0.15/mixed_ref=1/me_range=24/chroma_me=1/trellis=2/8x8dct=1/cqm=0/deadzone=21, 11/fast_pskip=0/chroma_qp_offset=-3/threads=5/lookahead_threads=1/sliced_threads=0/nr=0/decimate=0/interlaced=0/bluray_compat=0/constrained_intra=0/bframes=6/b_pyramid=2/b_adapt=2/b_bias=0/direct=1/weightb=1/open_gop=0/weightp=2/keyint=240/keyint_min=24/scenecut=40/intra_refresh=0/rc=2pass/mbtree=0/bitrate=10000/ratetol=1.0/qcomp=0.70/qpmin=3/qpmax=69/qpstep=4/cplxblur=20.0/qblur=0.5/ip_ratio=1.40/pb_ratio=1.30/aq=2: 1.00
    Language : Russian
    Default : Yes
    Forced : No
    Audio #1
    ID : 2
    Format : AC-3
    Format/Info : Audio Coding 3
    Mode extension : CM (complete main)
    Format settings, Endianness : Big
    Codec ID : A_AC3
    Duration : 2h 6mn
    Bit rate mode : Constant
    Bit rate : 640 Kbps
    Channel(s) : 6 channels
    Channel positions : Front: L C R, Side: L R, LFE
    Sampling rate : 48.0 KHz
    Bit depth : 16 bits
    Compression mode : Lossy
    Stream size : 578 MiB (6%)
    Title : Dub
    Language : Russian
    Default : Yes
    Forced : No
    Audio #2
    ID : 3
    Format : AC-3
    Format/Info : Audio Coding 3
    Mode extension : CM (complete main)
    Format settings, Endianness : Big
    Codec ID : A_AC3
    Duration : 2h 6mn
    Bit rate mode : Constant
    Bit rate : 640 Kbps
    Channel(s) : 6 channels
    Channel positions : Front: L C R, Side: L R, LFE
    Sampling rate : 48.0 KHz
    Bit depth : 16 bits
    Compression mode : Lossy
    Stream size : 578 MiB (6%)
    Language : English
    Default : No
    Forced : No
    Text #1
    ID : 4
    Format : UTF-8
    Codec ID : S_TEXT/UTF8
    Codec ID/Info : UTF-8 Plain Text
    Title : Forced
    Language : Russian
    Default : Yes
    Forced : No
    Text #2
    ID : 5
    Format : UTF-8
    Codec ID : S_TEXT/UTF8
    Codec ID/Info : UTF-8 Plain Text
    Language : Russian
    Default : No
    Forced : No
    Text #3
    ID : 6
    Format : UTF-8
    Codec ID : S_TEXT/UTF8
    Codec ID/Info : UTF-8 Plain Text
    Language : English
    Default : No
    Forced : No

    Скриншоты для ознакомления



    Все одноименные релизы в Клубе
    Время раздачи: 24/7 (до появления первых 3-5 скачавших)


    Железный Человек/Iron Man (2008) BDRip [H.264/1080p] [Hybrid] [hand made 16:9]
    Рейтинг →
     (голосов: 1, оценка 3/5, голосовать можно 1 раз )

    Другие торренты по теме:

  • Железный человек 3 / Iron Man 3 (2013) BDRemux 3D [1080p] [3D / 2D]
  • Железный человек 007 / Iron man 007 (1976) VHSRip
  • Несокрушимый Железный человек / The Invincible Iron Man (2007) BDRip [720p] скачать через торрент бесплатно
  • Несокрушимый Железный человек / The Invincible Iron Man (2007) BDRip скачать через торрент бесплатно
  • Железный человек и Капитан Америка: Союз героев / Iron Man and Captain America: Heroes United (2014) HDRip [H.264 / 1080p-LQ] скачать через торрент бесплатно
  • Железный человек и Халк: Союз героев / Iron Man & Hulk: Heroes United (2013) BDRip [H.264 / 1080p] скачать через торрент бесплатно
  • Железный человек / Iron Man (2008-2013) BDRip [H.264 / 720p-LQ] [Трилогия] скачать через торрент бесплатно
  • Железный Человек 3 / Iron Man 3 (2013) BDRip 3D [H.264 / 1080p] [Вертикальная анаморфная стереопара] [hand made 16:9] скачать через торрент бесплатно


    • Комментарии (0):

      Информация

      Информация

        Посетители, находящиеся в группе Гости, не могут оставлять комментарии в данной новости.

        ↓ Меню




        ↓ Опрос

        Вы добавили сайт в закладки?
        Да
        Нет


        Популярное