.
Авторизация | Регистрация

bitok.xyz

» » Мэри Поппинс возвращается / Mary Poppins Returns (2018) BDRip [H.264 / 1080p-LQ] [hand made 16:9] торрент скачать бесплатно


    Мэри Поппинс возвращается / Mary Poppins Returns (2018) BDRip [H.264 / 1080p-LQ] [hand made 16:9] торрент скачать бесплатно

    Дата: 6-04-2019, 05:00 | .torrent скачали: 6

    Мэри Поппинс возвращается / Mary Poppins Returns (2018) BDRip [H.264 / 1080p-LQ] [hand made 16:9]Производство: США/Lucamar Productions, Marc Platt Productions, Walt Disney Pictures
    Жанр: Мюзикл, Фэнтези, Комедия, Семейный
    Режиссер: Роб Маршалл
    Продюсер: Джон ДеЛюка, Бен Ховарт, Дженнифер Лэйн

    Актеры
    Эмили Блант, Лин-Мануэль Миранда, Бен Уишоу, Эмили Мортимер, Пикси Дейвис, Натанаэль Салех, Джоэл Доусон, Джули Уолтерс, Мэрил Стрип, Колин Фёрт

    Описание

    Действие фильма разворачивается в Лондоне, в период 1930-х годов. В этом фильме Майкл и Джейн уже выросли, и живут со своими тремя детьми и их домработницей на Черри Сри Лайн. У Майкла произошла трагедия. Но в этот момент загадочная няня Мэри Поппинс, снова входит в жизнь семьи Бэнкс, и используя свои магические способности, при помощи оптимистичного уличного фонарщика Джека, она помогает семье Бэнксов, вновь открыть для себя радость и чудо жизни.

    Возраст: 6+ (зрителям, достигшим 6 лет)
    Рейтинг MPAA: PG (рекомендуется присутствие родителей)
    Дата мировой премьеры: 29 ноября 2018
    Дата российской премьеры: 3 января 2019, WDSSPR
    Продолжительность: 02: 10: 29
    Качество видео: BDRip
    Перевод: дубляж (iTunes)
    Субтитры: 3 потока: русские (форс., полные), английские
    Видео: H.264/AVC, 1920х1080, ~ 8 Mbps
    Аудио #1: AC3, 6 ch, 384 Kbps - русский
    Аудио #2: AC3, 6 ch, 640 Kbps - английский
    x264 info: frame I: 1399 Avg QP: 16.52 size: 206305
    x264 info: frame P: 47099 Avg QP: 18.92 size: 81386
    x264 info: frame B: 139215 Avg QP: 19.64 size: 26616
    Unique ID : 48044866842672945075619579519998958890 (0x24251AD26136DAFD007F319576911D2A)
    Complete name : D: TempNNMMary.Poppins.Returns.2018.FS.mkv
    Format : Matroska
    Format version : Version 4/Version 2
    File size : 8.23 GiB
    Duration : 2h 10mn
    Overall bit rate : 9 027 Kbps
    Movie name : Mary Poppins Returns 2018
    Writing library : Lavf57.71.100
    Video
    ID : 1
    Format : AVC
    Format/Info : Advanced Video Codec
    Format profile : High@L4.1
    Format settings, CABAC : Yes
    Format settings, ReFrames : 4 frames
    Codec ID : V_MPEG4/ISO/AVC
    Duration : 2h 10mn
    Bit rate : 8 000 Kbps
    Width : 1 920 pixels
    Height : 1 080 pixels
    Display aspect ratio : 16: 9
    Frame rate mode : Constant
    Frame rate : 23.976 fps
    Color space : YUV
    Chroma subsampling : 4: 2: 0
    Bit depth : 8 bits
    Scan type : Progressive
    Bits/(Pixel*Frame) : 0.161
    Stream size : 7.13 GiB (87%)
    Writing library : x264 core 157 r2935 545de2f
    Encoding settings : cabac=1/ref=4/deblock=1: -3: -3/analyse=0x3: 0x113/me=umh/subme=9/psy=1/psy_rd=1.05: 0.15/mixed_ref=1/me_range=24/chroma_me=1/trellis=2/8x8dct=1/cqm=0/deadzone=21, 11/fast_pskip=0/chroma_qp_offset=-3/threads=5/lookahead_threads=1/sliced_threads=0/nr=0/decimate=0/interlaced=0/bluray_compat=0/constrained_intra=0/bframes=6/b_pyramid=2/b_adapt=2/b_bias=0/direct=1/weightb=1/open_gop=0/weightp=2/keyint=240/keyint_min=24/scenecut=40/intra_refresh=0/rc=2pass/mbtree=0/bitrate=8000/ratetol=1.0/qcomp=0.70/qpmin=3/qpmax=69/qpstep=4/cplxblur=20.0/qblur=0.5/ip_ratio=1.40/pb_ratio=1.30/aq=2: 1.00
    Language : English
    Default : Yes
    Forced : No
    Audio #1
    ID : 2
    Format : AC-3
    Format/Info : Audio Coding 3
    Mode extension : CM (complete main)
    Format settings, Endianness : Big
    Codec ID : A_AC3
    Duration : 2h 10mn
    Bit rate mode : Constant
    Bit rate : 384 Kbps
    Channel(s) : 6 channels
    Channel positions : Front: L C R, Side: L R, LFE
    Sampling rate : 48.0 KHz
    Bit depth : 16 bits
    Compression mode : Lossy
    Stream size : 358 MiB (4%)
    Title : iTunes
    Language : Russian
    Default : Yes
    Forced : Yes
    Audio #2
    ID : 3
    Format : AC-3
    Format/Info : Audio Coding 3
    Mode extension : CM (complete main)
    Format settings, Endianness : Big
    Codec ID : A_AC3
    Duration : 2h 10mn
    Bit rate mode : Constant
    Bit rate : 640 Kbps
    Channel(s) : 6 channels
    Channel positions : Front: L C R, Side: L R, LFE
    Sampling rate : 48.0 KHz
    Bit depth : 16 bits
    Compression mode : Lossy
    Stream size : 597 MiB (7%)
    Title : Original
    Language : English
    Default : Yes
    Forced : No
    Text #1
    ID : 4
    Format : UTF-8
    Codec ID : S_TEXT/UTF8
    Codec ID/Info : UTF-8 Plain Text
    Title : Forced iTunes
    Language : Russian
    Default : Yes
    Forced : Yes
    Text #2
    ID : 5
    Format : UTF-8
    Codec ID : S_TEXT/UTF8
    Codec ID/Info : UTF-8 Plain Text
    Title : Full iTunes
    Language : Russian
    Default : Yes
    Forced : No
    Text #3
    ID : 6
    Format : UTF-8
    Codec ID : S_TEXT/UTF8
    Codec ID/Info : UTF-8 Plain Text
    Language : English
    Default : No
    Forced : No

    Скриншоты для ознакомления



    Все одноименные релизы в Клубе
    Время раздачи: 24/7 (до появления первых 3-5 скачавших)

    Мэри Поппинс возвращается/Mary Poppins Returns (2018) BDRip [H.264/1080p-LQ] [hand made 16:9]
    Рейтинг →
     (голосов: 1, оценка 4/5, голосовать можно 1 раз )

    Другие торренты по теме:

  • Мэри Поппинс / Mary Poppins (1964) HDRip [h.264]
  • Мэри Поппинс / Mary Poppins (1964) BDRip
  • Мэри Поппинс / Mary Poppins (1964) BDRip [H.264 / 720p-LQ]
  • Памела Трэверс | Мэри Поппинс рассказывает сказку (1973) [MP3]
  • Мэри Поппинс возвращается / Mary Poppins Returns (2018) CamRip [AD]
  • Мэри Поппинс возвращается / Mary Poppins Returns (2018) BDRip [H.264] [MVO]
  • Мэри Поппинс возвращается / Mary Poppins Returns (2018) BDRip [H.264 / 1080p] [PR]
  • Мэри Поппинс возвращается / Mary Poppins Returns (2018) BDRemux [H.264 / 1080p]


    • Комментарии (0):

      Информация

      Информация

        Посетители, находящиеся в группе Гости, не могут оставлять комментарии в данной новости.

        ↓ Меню




        ↓ Опрос

        Вы добавили сайт в закладки?
        Да
        Нет


        Популярное