.
Авторизация | Регистрация

bitok.xyz

» » Игра / The Game (1997) Hybrid [H.264 / 1080p] [Open Matte] торрент скачать бесплатно


    Игра / The Game (1997) Hybrid [H.264 / 1080p] [Open Matte] торрент скачать бесплатно

    Дата: 9-04-2019, 05:01 | .torrent скачали: 6

    Игра / The Game (1997) Hybrid [H.264 / 1080p] [Open Matte]Производство: США/AB Producoes, Lda., PolyGram Filmed Entertainment, Propaganda Films.
    Жанр: Триллер, драма, детектив, приключения
    Режиссер: Дэвид Финчер
    Продюсер: Сиан Чаффин, Стив Голин, Джон Бренкето

    Актеры
    Майкл Дуглас, Шон Пенн, Дебора Кара Ангер, Джеймс Ребхорн, Питер Донат, Кэррол Бейкер, Анна Катарина, Армин Мюллер-Шталь, Чарльз Мартине, Скотт Хантер МакГуайр

    Описание

    Николас Ван Ортон — само воплощение успеха. Он преуспевает, он невозмутим и спокоен, привык держать любую ситуацию под контролем. На день рождения Николас получает необычный подарок — билет для участия в Игре.
    Ему обещают, что игра вернет яркие чувства, позволит ощутить вкус и остроту жизни. Вступив в игру, Николас начинает осознавать, что это игра всерьез, игра не на жизнь, а на смерть.

    Возраст: 16+ (зрителям, достигшим 16 лет)
    Рейтинг MPAA: R (лицам до 17 лет обязательно присутствие взрослого)
    Релиз от: BlueBird
    Продолжительность: 02: 08: 38
    Качество: Hybrid 1080p
    Перевод: Дублированный, профессиональный, (многоголосый, двуголосый, закадровый), авторский (одноголосый, закадровый)
    Субтитры: Русские (Full x2), английские (Full, SDH, Commentary)
    Видео: AVC/H.264, 1920x1080, (16: 9), ~14.4 Mbps, 23.976 fps
    Аудио 01: DTS, 6 ch, 768 kbps - Русский (MVO, Позитив-Мультимедиа)
    Аудио 02: AC3, 6 ch, 384 kbps - Русский (DUB, DVD-Group/Позитив-Мультимедиа)
    Аудио 03: AC3, 6 ch, 384 kbps - Русский (DVO, Liga HQ)
    Аудио 04: AC3, 2 ch, 224 kbps - Русский (MVO, AB video)
    Аудио 05: AC3, 2 ch, 192 kbps - Русский (MVO, РТР)
    Аудио 06: AC3, 2 ch, 224 kbps - Русский (DVO, Союз Видео)
    Аудио 07: AC3, 2 ch, 224 kbps - Русский (DVO, НТВ+)
    Аудио 08: AC3, 2 ch, 192 kbps - Русский (DVO, РЕН-ТВ)
    Аудио 09: AC3, 2 ch, 192 kbps - Русский (MVO, Первый канал)
    Аудио 10: AC3, 2 ch, 192 kbps - Русский (DVO, SDI Media)
    Аудио 11: DTS, 6 ch, 1509 kbps - Русский (AVO, Ю. Живов)
    Аудио 12: DTS, 6 ch, 1509 kbps - Русский (AVO, Д. Есарев)
    Аудио 13: DTS, 6 ch, 1509 kbps - Русский (AVO, А. Гаврилов, поздний)
    Аудио 14: AC3, 2 ch, 192 kbps - Русский (AVO, А. Гаврилов, ранний)
    Аудио 15: AC3, 2 ch, 192 kbps - Русский (VO, Антонов)
    Аудио 16: DTS, 6 ch, 1509 kbps - Английский
    Аудио 17: AC3, 2 ch, 128 kbps - Английский (Commentary)
    General
    Unique ID : 121179591805662902683327464897551201175 (0x5B2A5727C72E17C218F860707C7EF397)
    Complete name : S: The.Game.1997.Open.Matte.1080p.mkv
    Format : Matroska
    Format version : Version 4
    File size : 21.5 GiB
    Duration : 2 h 8 min
    Overall bit rate : 23.9 Mb/s
    Movie name : The Game (1997)
    Encoded date : UTC 2019-04-07 16: 49: 18
    Writing application : mkvmerge v31.0.0 (\'Dolores In A Shoestand\') 64-bit
    Writing library : libebml v1.3.6 + libmatroska v1.4.9
    Cover : Yes
    Attachments : cover
    Video
    ID : 1
    Format : AVC
    Format/Info : Advanced Video Codec
    Format profile : High@L4.1
    Format settings : CABAC/4 Ref Frames
    Format settings, CABAC : Yes
    Format settings, ReFrames : 4 frames
    Codec ID : V_MPEG4/ISO/AVC
    Duration : 2 h 8 min
    Bit rate : 14.4 Mb/s
    Width : 1 920 pixels
    Height : 1 080 pixels
    Display aspect ratio : 16: 9
    Frame rate mode : Constant
    Frame rate : 23.976 (24000/1001) FPS
    Color space : YUV
    Chroma subsampling : 4: 2: 0
    Bit depth : 8 bits
    Scan type : Progressive
    Bits/(Pixel*Frame) : 0.290
    Stream size : 12.9 GiB (60%)
    Writing library : x264 core 157 r2969 d4099dd
    Encoding settings : cabac=1/ref=4/deblock=1: -3: -3/analyse=0x3: 0x133/me=umh/subme=11/psy=1/psy_rd=1.10: 0.00/mixed_ref=1/me_range=32/chroma_me=1/trellis=2/8x8dct=1/cqm=0/deadzone=21, 11/fast_pskip=1/chroma_qp_offset=-2/threads=12/lookahead_threads=1/sliced_threads=0/nr=0/decimate=1/interlaced=0/bluray_compat=0/constrained_intra=0/bframes=8/b_pyramid=2/b_adapt=2/b_bias=0/direct=1/weightb=1/open_gop=0/weightp=2/keyint=240/keyint_min=23/scenecut=40/intra_refresh=0/rc_lookahead=40/rc=crf/mbtree=0/crf=17.8/qcomp=0.60/qpmin=0/qpmax=69/qpstep=4/vbv_maxrate=50000/vbv_bufsize=62500/crf_max=0.0/nal_hrd=none/filler=0/ip_ratio=1.40/pb_ratio=1.30/aq=1: 1.00
    Language : English
    Default : Yes
    Forced : No
    Color range : Limited
    Color primaries : BT.709
    Transfer characteristics : BT.709
    Matrix coefficients : BT.709
    Audio #1
    ID : 2
    Format : DTS
    Format/Info : Digital Theater Systems
    Codec ID : A_DTS
    Duration : 2 h 8 min
    Bit rate mode : Constant
    Bit rate : 768 kb/s
    Channel(s) : 6 channels
    Channel layout : C L R Ls Rs LFE
    Sampling rate : 48.0 kHz
    Frame rate : 93.750 FPS (512 SPF)
    Bit depth : 24 bits
    Compression mode : Lossy
    Stream size : 707 MiB (3%)
    Title : MVO Positive
    Language : Russian
    Default : Yes
    Forced : No
    Audio #2
    ID : 3
    Format : AC-3
    Format/Info : Audio Coding 3
    Commercial name : Dolby Digital
    Codec ID : A_AC3
    Duration : 2 h 8 min
    Bit rate mode : Constant
    Bit rate : 384 kb/s
    Channel(s) : 6 channels
    Channel layout : L R C LFE Ls Rs
    Sampling rate : 48.0 kHz
    Frame rate : 31.250 FPS (1536 SPF)
    Bit depth : 16 bits
    Compression mode : Lossy
    Stream size : 353 MiB (2%)
    Title : Dub
    Language : Russian
    Service kind : Complete Main
    Default : No
    Forced : No
    Audio #3
    ID : 4
    Format : AC-3
    Format/Info : Audio Coding 3
    Commercial name : Dolby Digital
    Codec ID : A_AC3
    Duration : 2 h 8 min
    Bit rate mode : Constant
    Bit rate : 384 kb/s
    Channel(s) : 6 channels
    Channel layout : L R C LFE Ls Rs
    Sampling rate : 48.0 kHz
    Frame rate : 31.250 FPS (1536 SPF)
    Bit depth : 16 bits
    Compression mode : Lossy
    Stream size : 353 MiB (2%)
    Title : DVO Liga HQ
    Language : Russian
    Service kind : Complete Main
    Default : No
    Forced : No
    Audio #4
    ID : 5
    Format : AC-3
    Format/Info : Audio Coding 3
    Commercial name : Dolby Digital
    Codec ID : A_AC3
    Duration : 2 h 8 min
    Bit rate mode : Constant
    Bit rate : 224 kb/s
    Channel(s) : 2 channels
    Channel layout : L R
    Sampling rate : 48.0 kHz
    Frame rate : 31.250 FPS (1536 SPF)
    Bit depth : 16 bits
    Compression mode : Lossy
    Stream size : 206 MiB (1%)
    Title : MVO AB video
    Language : Russian
    Service kind : Complete Main
    Default : No
    Forced : No
    Audio #5
    ID : 6
    Format : AC-3
    Format/Info : Audio Coding 3
    Commercial name : Dolby Digital
    Codec ID : A_AC3
    Duration : 2 h 8 min
    Bit rate mode : Constant
    Bit rate : 192 kb/s
    Channel(s) : 2 channels
    Channel layout : L R
    Sampling rate : 48.0 kHz
    Frame rate : 31.250 FPS (1536 SPF)
    Bit depth : 16 bits
    Compression mode : Lossy
    Stream size : 177 MiB (1%)
    Title : MVO RTR
    Language : Russian
    Service kind : Complete Main
    Default : No
    Forced : No
    Audio #6
    ID : 7
    Format : AC-3
    Format/Info : Audio Coding 3
    Commercial name : Dolby Digital
    Codec ID : A_AC3
    Duration : 2 h 8 min
    Bit rate mode : Constant
    Bit rate : 224 kb/s
    Channel(s) : 2 channels
    Channel layout : L R
    Sampling rate : 48.0 kHz
    Frame rate : 31.250 FPS (1536 SPF)
    Bit depth : 16 bits
    Compression mode : Lossy
    Stream size : 206 MiB (1%)
    Title : DVO Soyuz video
    Language : Russian
    Service kind : Complete Main
    Default : No
    Forced : No
    Audio #7
    ID : 8
    Format : AC-3
    Format/Info : Audio Coding 3
    Commercial name : Dolby Digital
    Codec ID : A_AC3
    Duration : 2 h 8 min
    Bit rate mode : Constant
    Bit rate : 224 kb/s
    Channel(s) : 2 channels
    Channel layout : L R
    Sampling rate : 48.0 kHz
    Frame rate : 31.250 FPS (1536 SPF)
    Bit depth : 16 bits
    Compression mode : Lossy
    Stream size : 206 MiB (1%)
    Title : DVO NTV+
    Language : Russian
    Service kind : Complete Main
    Default : No
    Forced : No
    Audio #8
    ID : 9
    Format : AC-3
    Format/Info : Audio Coding 3
    Commercial name : Dolby Digital
    Codec ID : A_AC3
    Duration : 2 h 8 min
    Bit rate mode : Constant
    Bit rate : 192 kb/s
    Channel(s) : 2 channels
    Channel layout : L R
    Sampling rate : 48.0 kHz
    Frame rate : 31.250 FPS (1536 SPF)
    Bit depth : 16 bits
    Compression mode : Lossy
    Stream size : 177 MiB (1%)
    Title : DVO REN-TV
    Language : Russian
    Service kind : Complete Main
    Default : No
    Forced : No
    Audio #9
    ID : 10
    Format : AC-3
    Format/Info : Audio Coding 3
    Commercial name : Dolby Digital
    Codec ID : A_AC3
    Duration : 2 h 8 min
    Bit rate mode : Constant
    Bit rate : 192 kb/s
    Channel(s) : 2 channels
    Channel layout : L R
    Sampling rate : 48.0 kHz
    Frame rate : 31.250 FPS (1536 SPF)
    Bit depth : 16 bits
    Compression mode : Lossy
    Stream size : 177 MiB (1%)
    Title : MVO 1 kanal
    Language : Russian
    Service kind : Complete Main
    Default : No
    Forced : No
    Audio #10
    ID : 11
    Format : AC-3
    Format/Info : Audio Coding 3
    Commercial name : Dolby Digital
    Codec ID : A_AC3
    Duration : 2 h 8 min
    Bit rate mode : Constant
    Bit rate : 192 kb/s
    Channel(s) : 2 channels
    Channel layout : L R
    Sampling rate : 48.0 kHz
    Frame rate : 31.250 FPS (1536 SPF)
    Bit depth : 16 bits
    Compression mode : Lossy
    Stream size : 177 MiB (1%)
    Title : DVO SDI
    Language : Russian
    Service kind : Complete Main
    Default : No
    Forced : No
    Audio #11
    ID : 12
    Format : DTS
    Format/Info : Digital Theater Systems
    Codec ID : A_DTS
    Duration : 2 h 8 min
    Bit rate mode : Constant
    Bit rate : 1 509 kb/s
    Channel(s) : 6 channels
    Channel layout : C L R Ls Rs LFE
    Sampling rate : 48.0 kHz
    Frame rate : 93.750 FPS (512 SPF)
    Bit depth : 24 bits
    Compression mode : Lossy
    Stream size : 1.36 GiB (6%)
    Title : VO Zhivov
    Language : Russian
    Default : No
    Forced : No
    Audio #12
    ID : 13
    Format : DTS
    Format/Info : Digital Theater Systems
    Codec ID : A_DTS
    Duration : 2 h 8 min
    Bit rate mode : Constant
    Bit rate : 1 509 kb/s
    Channel(s) : 6 channels
    Channel layout : C L R Ls Rs LFE
    Sampling rate : 48.0 kHz
    Frame rate : 93.750 FPS (512 SPF)
    Bit depth : 24 bits
    Compression mode : Lossy
    Stream size : 1.36 GiB (6%)
    Title : VO Esarev
    Language : Russian
    Default : No
    Forced : No
    Audio #13
    ID : 14
    Format : DTS
    Format/Info : Digital Theater Systems
    Codec ID : A_DTS
    Duration : 2 h 8 min
    Bit rate mode : Constant
    Bit rate : 1 509 kb/s
    Channel(s) : 6 channels
    Channel layout : C L R Ls Rs LFE
    Sampling rate : 48.0 kHz
    Frame rate : 93.750 FPS (512 SPF)
    Bit depth : 24 bits
    Compression mode : Lossy
    Stream size : 1.36 GiB (6%)
    Title : VO Gavrilov 2
    Language : Russian
    Default : No
    Forced : No
    Audio #14
    ID : 15
    Format : AC-3
    Format/Info : Audio Coding 3
    Commercial name : Dolby Digital
    Codec ID : A_AC3
    Duration : 2 h 8 min
    Bit rate mode : Constant
    Bit rate : 192 kb/s
    Channel(s) : 2 channels
    Channel layout : L R
    Sampling rate : 48.0 kHz
    Frame rate : 31.250 FPS (1536 SPF)
    Bit depth : 16 bits
    Compression mode : Lossy
    Stream size : 177 MiB (1%)
    Title : VO Gavrilov 1
    Service kind : Complete Main
    Default : No
    Forced : No
    Audio #15
    ID : 16
    Format : AC-3
    Format/Info : Audio Coding 3
    Commercial name : Dolby Digital
    Codec ID : A_AC3
    Duration : 2 h 8 min
    Bit rate mode : Constant
    Bit rate : 192 kb/s
    Channel(s) : 2 channels
    Channel layout : L R
    Sampling rate : 48.0 kHz
    Frame rate : 31.250 FPS (1536 SPF)
    Bit depth : 16 bits
    Compression mode : Lossy
    Stream size : 177 MiB (1%)
    Title : VO Antonov
    Language : Russian
    Service kind : Complete Main
    Default : No
    Forced : No
    Audio #16
    ID : 17
    Format : DTS
    Format/Info : Digital Theater Systems
    Codec ID : A_DTS
    Duration : 2 h 8 min
    Bit rate mode : Constant
    Bit rate : 1 509 kb/s
    Channel(s) : 6 channels
    Channel layout : C L R Ls Rs LFE
    Sampling rate : 48.0 kHz
    Frame rate : 93.750 FPS (512 SPF)
    Bit depth : 24 bits
    Compression mode : Lossy
    Stream size : 1.36 GiB (6%)
    Title : Original Theatrical Mix
    Language : English
    Default : No
    Forced : No
    Audio #17
    ID : 18
    Format : AC-3
    Format/Info : Audio Coding 3
    Commercial name : Dolby Digital
    Codec ID : A_AC3
    Duration : 2 h 8 min
    Bit rate mode : Constant
    Bit rate : 128 kb/s
    Channel(s) : 2 channels
    Channel layout : L R
    Sampling rate : 48.0 kHz
    Frame rate : 31.250 FPS (1536 SPF)
    Bit depth : 16 bits
    Compression mode : Lossy
    Stream size : 118 MiB (1%)
    Title : Commentary
    Language : English
    Service kind : Complete Main
    Default : No
    Forced : No
    Text #1
    ID : 19
    Format : UTF-8
    Codec ID : S_TEXT/UTF8
    Codec ID/Info : UTF-8 Plain Text
    Duration : 2 h 2 min
    Bit rate : 69 b/s
    Count of elements : 858
    Stream size : 62.4 KiB (0%)
    Title : Positive
    Language : Russian
    Default : No
    Forced : No
    Text #2
    ID : 20
    Format : UTF-8
    Codec ID : S_TEXT/UTF8
    Codec ID/Info : UTF-8 Plain Text
    Duration : 2 h 2 min
    Bit rate : 78 b/s
    Count of elements : 1190
    Stream size : 70.1 KiB (0%)
    Language : Russian
    Default : No
    Forced : No
    Text #3
    ID : 21
    Format : UTF-8
    Codec ID : S_TEXT/UTF8
    Codec ID/Info : UTF-8 Plain Text
    Duration : 2 h 0 min
    Bit rate : 50 b/s
    Count of elements : 1168
    Stream size : 44.7 KiB (0%)
    Language : English
    Default : No
    Forced : No
    Text #4
    ID : 22
    Format : UTF-8
    Codec ID : S_TEXT/UTF8
    Codec ID/Info : UTF-8 Plain Text
    Duration : 2 h 7 min
    Bit rate : 61 b/s
    Count of elements : 1514
    Stream size : 57.3 KiB (0%)
    Title : SDH
    Language : English
    Default : No
    Forced : No
    Text #5
    ID : 23
    Format : UTF-8
    Codec ID : S_TEXT/UTF8
    Codec ID/Info : UTF-8 Plain Text
    Duration : 2 h 8 min
    Bit rate : 97 b/s
    Count of elements : 1865
    Stream size : 91.4 KiB (0%)
    Title : Commentary
    Language : English
    Default : No
    Forced : No
    Menu
    00: 00: 00.000 : en: Opening titles
    00: 00: 51.635 : en: Birthday party
    00: 02: 37.782 : en: “Happy birthday, sir”
    00: 05: 37.211 : en: Profound life experience
    00: 09: 13.094 : en: Forty-eight
    00: 13: 27.098 : en: Consumer Recreation Services
    00: 17: 39.725 : en: “Confused . . . risky . . . bloody . . . whoops”
    00: 20: 37.903 : en: John 9: 25
    00: 24: 34.765 : en: “This is your Game, and welcome to it”
    00: 30: 33.206 : en: Helping hand
    00: 33: 45.898 : en: “Don’t let her get away”
    00: 42: 58.868 : en: Czar Nicholas
    00: 50: 55.344 : en: Guy in the gray flannel suit
    00: 53: 41.176 : en: Hotel Nikko
    00: 58: 56.699 : en: Toyed with by depraved children
    01: 04: 41.752 : en: Nicholas Van Cocksucker
    01: 07: 51.901 : en: Human piñata
    01: 12: 16.916 : en: California Regal Sedans
    01: 15: 43.163 : en: Motive
    01: 18: 40.757 : en: Cable Repair Specialists
    01: 26: 34.814 : en: Blue 2/9690D
    01: 33: 41.782 : en: Entombed
    01: 37: 15.287 : en: “Can I have your attention, please?”
    01: 42: 08.455 : en: Trust Taggarene
    01: 44: 59.376 : en: “I love your work”
    01: 48: 11.151 : en: Pulling back the curtain
    01: 52: 23.653 : en: “This is the Game”
    01: 59: 13.479 : en: Cordially invited
    02: 03: 29.610 : en: End credits
    Основа open matte источника - HDTV трансляции телеканалов TMC и France 2.
    Для скрытия хардсабов и битых кадров использован альтернативный трансфер WEB-DL,
    OAR HD DVD наложен поверх open matte источника с помощью AutoOverlay AviSynth plugin.
    Цвет на 20% скорректирован в сторону BD Criterion.
    Хронометраж соответствует HD DVD.
    Благодарности: Beber, MIFAL, Vouka, maksnew, pan29, JUSTKANT, igrok2012, ertex647, Genzinlee, Radoran, amplified, Schmulke, Oleg39, Liu Jian, xxllxx, Fikaloid, slavikevro, team_6strun, weber, Arsenfpu, Pr0peLLer, mihaildns

    Скриншоты для ознакомления


    Все одноименные релизы в Клубе
    Время раздачи: 24/7 до первых 10-и скачавших


    Игра/The Game (1997) Hybrid [H.264/1080p] [Open Matte]
    Рейтинг →
     (голосов: 1, оценка 3/5, голосовать можно 1 раз )

    Другие торренты по теме:

  • Ranpo Kitan: Game of Laplace / Rampo Kitan: Game of Laplace / Таинственные истории Эдогавы Рампо: Игра Лапласа [2015, TV, 6 из 11 ep] HDTVRip 720p Raw скачать через торрент бесплатно
  • Gekijouban Kuroko no Baske: Last Game | Kurokos basketbal: Last Game | Баскетбол Куроко: последняя игра [2017, Movie] BDRip 1080p raw
  • Ou-sama Game The Animation / Kings Game The Animation / Королевская игра [2017, TV, 1 из 12] HDTV 720p raw
  • Ousama Game The Animation / Kings Game The Animation / Королевская Игра [2017, TV, 1 из 12] WEB-DL 720p Raw+Rus
  • No Game No Life | Игра на выживание | Нет игры - нет жизни [2014, TV, 8 из 12 эп.] BDrip 1080p raw скачать через торрент бесплатно
  • Шерлок Холмс: Игра теней / Sherlock Holmes: A Game of Shadows(2011) BDRip [1080p] ATV
  • Игра / Игры разведок / The Game (2014) WEB-DLRip [H.264 / 720p-LQ] (сезон 1, серии 1 из 6) CSS (обновляемая) скачать через торрент бесплатно
  • Игра / Игры разведок / The Game (2014) WEB-DLRip (сезон 1, серии 1 из 6) CSS (обновляемая) скачать через торрент бесплатно


    • Комментарии (0):

      Информация

      Информация

        Посетители, находящиеся в группе Гости, не могут оставлять комментарии в данной новости.

        ↓ Меню




        ↓ Опрос

        Вы добавили сайт в закладки?
        Да
        Нет


        Популярное