.
Авторизация | Регистрация

bitok.xyz

» » Камчатка 2007 (2007) CamRip торрент скачать бесплатно


    Камчатка 2007 (2007) CamRip торрент скачать бесплатно

    Дата: 14-04-2019, 05:00 | .torrent скачали: 10

    Камчатка 2007 (2007) CamRipАвтор: Stepa56
    Название: Камчатка 2007
    Год события: 2007
    Место съёмки: Россия, Юг Камчатки

    Описание

    Группа туристов (дикарей) прилетела на Камчатку, в аэропорту Елизово заказали вертолёт, и они были закинуты на 170 км, в южном направлении.
    Обратно туристы двигались пешком, по ранее определённому маршруту, и снимали все достопримечательности этого богатого, и красивейшего края.
    За время похода была заснята флора и фауна Камчатки.
    В объектив попадали животные, птицы, рыбы, и даже медведь.
    В фильме очень ярко выражены достопримечательности, так называемой Малой долины гейзеров, под Мутновским вулканом, а так же сам вулкан.
    Действие происходило в конце августа - начале сентября 2007 г.
    Примечание:
    Сам автор этого релиза, в этом походе участие не принимал.
    Продолжительность: 00: 29: 27
    Качество видео: CamRip
    Виде: Xvid, 720х400, 1020 Kbps
    Аудио: 320 Kbps

    Скриншоты для ознакомления


    Общее
    Полное имя : E: Камчатка 2007.avi
    Формат : AVI
    Формат/Информация : Audio Video Interleave
    Размер файла : 285 Мбайт
    Продолжительность : 29 м.
    Режим общего битрейта : Переменный
    Общий поток : 1351 Кбит/сек
    Программа кодирования : MEncoder Sherpya-SVN-r29355-4.5.0
    Библиотека кодирования : MPlayer
    Видео
    Идентификатор : 0
    Формат : MPEG-4 Visual
    Профиль формата : Simple@L3
    Параметр BVOP формата : Нет
    Параметр QPel формата : Нет
    Параметр GMC формата : Без точки перехода
    Параметр матрицы формата : Default (H.263)
    Идентификатор кодека : XVID
    Идентификатор кодека/Подсказка : XviD
    Продолжительность : 29 м.
    Битрейт : 1020 Кбит/сек
    Ширина : 720 пикселей
    Высота : 400 пикселей
    Соотношение сторон : 16: 9
    Частота кадров : 25, 000 кадров/сек
    Цветовое пространство : YUV
    Субдискретизация насыщенности : 4: 2: 0
    Битовая глубина : 8 бит
    Тип развёртки : Прогрессивная
    Метод сжатия : С потерями
    Бит/(Пиксели*Кадры) : 0.142
    Размер потока : 215 Мбайт (75%)
    Библиотека кодирования : XviD 1.2.1 (UTC 2008-12-04)
    Аудио
    Идентификатор : 1
    Формат : MPEG Audio
    Версия формата : Version 1
    Профиль формата : Layer 3
    Режим : Joint stereo
    Идентификатор кодека : 55
    Идентификатор кодека/Подсказка : MP3
    Продолжительность : 29 м.
    Вид битрейта : Переменный
    Битрейт : 320 Кбит/сек
    Каналы : 2 канала
    Частота : 44, 1 КГц
    Метод сжатия : С потерями
    Размер потока : 67, 2 Мбайт (24%)
    Выравнивание : Соединение по промежуткам
    Продолжительность промежутка : 26 мс. (0, 65 видеокадр)
    Время предзагрузки промежутка : 512 мс.
    Библиотека кодирования : LAME3.98ЄЄЄЄЄЄЄЄЄЄЄЄ
    Время раздачи: с 08: 00 до 24: 00 мск

    Камчатка 2007 (2007) CamRip
    Рейтинг →
     (голосов: 1, оценка 3/5, голосовать можно 1 раз )

    Другие торренты по теме:

  • Камчатка. Жизнь на вулкане (2013) HDTVRip [H.264 / 720p]
  • Камчатка и Курильские острова / Kamchatka & Kurils islands (2017) WEB-DL [H.264 / 1080p]
  • Камчатка и Курильские острова / Kamchatka & Kuril islands (2017) WEBRip [H.264 / 2160p] [4K, UHD]
  • Камчатка / Kamchatka (2018) WEBRip [H.264 / 2160p] [4K, UHD]


    • Комментарии (0):

      Информация

      Информация

        Посетители, находящиеся в группе Гости, не могут оставлять комментарии в данной новости.

        ↓ Меню




        ↓ Опрос

        Вы добавили сайт в закладки?
        Да
        Нет


        Популярное