.
Авторизация | Регистрация

bitok.xyz

» » Игра / The Game (1997) HybridRip [H.264] [hand made 16:9] торрент скачать бесплатно


    Игра / The Game (1997) HybridRip [H.264] [hand made 16:9] торрент скачать бесплатно

    Дата: 15-04-2019, 05:00 | .torrent скачали: 4

    Игра / The Game (1997) HybridRip [H.264] [hand made 16:9]Производство: США/Polygram Filmed Entertainment, Propaganda Films, AB Producoes, Lda.
    Жанр: Триллер, Драма, Детектив, Приключения
    Режиссер: Дэвид Финчер

    Актеры
    Майкл Дуглас, Шон Пенн, Дебора Кара Ангер, Джеймс Ребхорн, Питер Донат, Кэррол Бейкер, Анна Катарина, Армин Мюллер-Шталь, Чарльз Мартине, Скотт Хантер МакГуайр

    Описание

    Николас Ван Ортон — само воплощение успеха. Он преуспевает, он невозмутим и спокоен, привык держать любую ситуацию под контролем. На день рождения Николас получает необычный подарок — билет для участия в Игре.
    Ему обещают, что игра вернет яркие чувства, позволит ощутить вкус и остроту жизни. Вступив в игру, Николас начинает осознавать, что это игра всерьез, игра не на жизнь, а на смерть.

    Возраст: 16+ (зрителям, достигшим 16 лет)
    Рейтинг MPAA: R (лицам до 17 лет обязательно присутствие взрослого)
    Продолжительность: 02: 08: 38
    Качество видео: HybridRip-AVC
    Перевод: Дублированный, Многоголосый закадровый
    Субтитры: Русские (Full x2), английские (Full, SDH)
    Видео: AVC/H.264, 1024x576, ~2423 Kbps
    Аудио 1: AC3, 6 ch, 384 kbps - Русский, DUB (DVD-Group/Позитив-Мультимедиа)
    Аудио 2: AC3, 6 ch, 448 kbps - Русский, MVO (Позитив-Мультимедиа)
    Аудио 3: AC3, 2 ch, 224 kbps - Русский, MVO (AB video)
    Аудио 4: AC3, 2 ch, 192 kbps - Русский, MVO (Первый канал)

    x264 info: frame I: 1635 Avg QP: 15.29 size: 65061
    x264 info: frame P: 34973 Avg QP: 16.56 size: 26394
    x264 info: frame B: 148432 Avg QP: 19.06 size: 9120
    x264 info: consecutive B-frames: 1.5% 1.3% 3.7% 12.6% 12.2% 51.1% 9.4% 4.3% 3.6% 0.4%
    General
    Unique ID : 163544857464362246734497044627611617470 (0x7B099804DB74C3821ECD16BCDAC688BE)
    Complete name : Игра.(1997).HybridRip-AVC.-=DoMiNo=-.mkv
    Format : Matroska
    Format version : Version 4
    File size : 3.34 GiB
    Duration : 2 h 8 min
    Overall bit rate : 3 721 kb/s
    Movie name : The Game (1997)
    Encoded date : UTC 2019-04-08 20: 34: 10
    Writing application : mkvmerge v32.0.0 (\'Astral Progressions\') 64-bit
    Writing library : libebml v1.3.7 + libmatroska v1.5.0
    Cover : Yes
    Attachments : cover
    Video
    ID : 1
    Format : AVC
    Format/Info : Advanced Video Codec
    Format profile : High@L4.1
    Format settings : CABAC/14 Ref Frames
    Format settings, CABAC : Yes
    Format settings, ReFrames : 14 frames
    Codec ID : V_MPEG4/ISO/AVC
    Duration : 2 h 8 min
    Bit rate : 2 470 kb/s
    Width : 1 024 pixels
    Height : 576 pixels
    Display aspect ratio : 16: 9
    Frame rate mode : Constant
    Frame rate : 23.976 (24000/1001) FPS
    Color space : YUV
    Chroma subsampling : 4: 2: 0
    Bit depth : 8 bits
    Scan type : Progressive
    Bits/(Pixel*Frame) : 0.175
    Stream size : 2.22 GiB (66%)
    Title : RIP_BY_-=DoMiNo=-
    Writing library : x264 core 157 r2969 d4099dd
    Encoding settings : cabac=1/ref=14/deblock=1: -3: -3/analyse=0x3: 0x133/me=umh/subme=11/psy=1/psy_rd=1.00: 0.00/mixed_ref=1/me_range=48/chroma_me=1/trellis=2/8x8dct=1/cqm=0/deadzone=21, 11/fast_pskip=1/chroma_qp_offset=-2/threads=6/lookahead_threads=1/sliced_threads=0/nr=0/decimate=1/interlaced=0/bluray_compat=0/constrained_intra=0/bframes=9/b_pyramid=2/b_adapt=2/b_bias=0/direct=1/weightb=1/open_gop=0/weightp=2/keyint=240/keyint_min=24/scenecut=40/intra_refresh=0/rc_lookahead=180/rc=crf/mbtree=0/crf=18.0/qcomp=0.60/qpmin=10/qpmax=69/qpstep=4/vbv_maxrate=50000/vbv_bufsize=62500/crf_max=0.0/nal_hrd=none/filler=0/ip_ratio=1.40/pb_ratio=1.30/aq=1: 1.00
    Language : English
    Default : Yes
    Forced : No
    Color range : Limited
    Color primaries : BT.709
    Transfer characteristics : BT.709
    Matrix coefficients : BT.709
    Audio #1
    ID : 2
    Format : AC-3
    Format/Info : Audio Coding 3
    Commercial name : Dolby Digital
    Codec ID : A_AC3
    Duration : 2 h 8 min
    Bit rate mode : Constant
    Bit rate : 384 kb/s
    Channel(s) : 6 channels
    Channel layout : L R C LFE Ls Rs
    Sampling rate : 48.0 kHz
    Frame rate : 31.250 FPS (1536 SPF)
    Bit depth : 16 bits
    Compression mode : Lossy
    Stream size : 353 MiB (10%)
    Title : DUB_DVD-Group/Позитив-Мультимедиа
    Language : Russian
    Service kind : Complete Main
    Default : Yes
    Forced : No
    Audio #2
    ID : 3
    Format : AC-3
    Format/Info : Audio Coding 3
    Commercial name : Dolby Digital
    Codec ID : A_AC3
    Duration : 2 h 8 min
    Bit rate mode : Constant
    Bit rate : 448 kb/s
    Channel(s) : 6 channels
    Channel layout : L R C LFE Ls Rs
    Sampling rate : 48.0 kHz
    Frame rate : 31.250 FPS (1536 SPF)
    Bit depth : 16 bits
    Compression mode : Lossy
    Stream size : 412 MiB (12%)
    Title : MVO_Позитив-Мультимедиа
    Language : Russian
    Service kind : Complete Main
    Default : No
    Forced : No
    Audio #3
    ID : 4
    Format : AC-3
    Format/Info : Audio Coding 3
    Commercial name : Dolby Digital
    Codec ID : A_AC3
    Duration : 2 h 8 min
    Bit rate mode : Constant
    Bit rate : 224 kb/s
    Channel(s) : 2 channels
    Channel layout : L R
    Sampling rate : 48.0 kHz
    Frame rate : 31.250 FPS (1536 SPF)
    Bit depth : 16 bits
    Compression mode : Lossy
    Stream size : 206 MiB (6%)
    Title : MVO_AB video
    Language : Russian
    Service kind : Complete Main
    Default : No
    Forced : No
    Audio #4
    ID : 5
    Format : AC-3
    Format/Info : Audio Coding 3
    Commercial name : Dolby Digital
    Codec ID : A_AC3
    Duration : 2 h 8 min
    Bit rate mode : Constant
    Bit rate : 192 kb/s
    Channel(s) : 2 channels
    Channel layout : L R
    Sampling rate : 48.0 kHz
    Frame rate : 31.250 FPS (1536 SPF)
    Bit depth : 16 bits
    Compression mode : Lossy
    Stream size : 177 MiB (5%)
    Title : MVO_Первый канал
    Language : Russian
    Service kind : Complete Main
    Default : No
    Forced : No
    Text #1
    ID : 6
    Format : UTF-8
    Codec ID : S_TEXT/UTF8
    Codec ID/Info : UTF-8 Plain Text
    Duration : 2 h 2 min
    Bit rate : 78 b/s
    Count of elements : 1190
    Stream size : 70.1 KiB (0%)
    Title : RUS
    Language : Russian
    Default : No
    Forced : No
    Text #2
    ID : 7
    Format : UTF-8
    Codec ID : S_TEXT/UTF8
    Codec ID/Info : UTF-8 Plain Text
    Duration : 2 h 2 min
    Bit rate : 69 b/s
    Count of elements : 858
    Stream size : 62.4 KiB (0%)
    Title : RUS
    Language : Russian
    Default : No
    Forced : No
    Text #3
    ID : 8
    Format : UTF-8
    Codec ID : S_TEXT/UTF8
    Codec ID/Info : UTF-8 Plain Text
    Duration : 2 h 0 min
    Bit rate : 50 b/s
    Count of elements : 1168
    Stream size : 44.7 KiB (0%)
    Title : ENg
    Language : English
    Default : No
    Forced : No
    Text #4
    ID : 9
    Format : UTF-8
    Codec ID : S_TEXT/UTF8
    Codec ID/Info : UTF-8 Plain Text
    Duration : 2 h 7 min
    Bit rate : 61 b/s
    Count of elements : 1514
    Stream size : 57.3 KiB (0%)
    Title : SDH
    Language : English
    Default : No
    Forced : No
    Menu
    00: 00: 00.000 : : Opening titles
    00: 00: 51.635 : : Birthday party
    00: 02: 37.782 : : “Happy birthday, sir”
    00: 05: 37.211 : : Profound life experience
    00: 09: 13.094 : : Forty-eight
    00: 13: 27.098 : : Consumer Recreation Services
    00: 17: 39.724 : : “Confused . . . risky . . . bloody . . . whoops”
    00: 20: 37.903 : : John 9: 25
    00: 24: 34.765 : : “This is your Game, and welcome to it”
    00: 30: 33.206 : : Helping hand
    00: 33: 45.898 : : “Don’t let her get away”
    00: 42: 58.868 : : Czar Nicholas
    00: 50: 55.344 : : Guy in the gray flannel suit
    00: 53: 41.176 : : Hotel Nikko
    00: 58: 56.699 : : Toyed with by depraved children
    01: 04: 41.752 : : Nicholas Van Cocksucker
    01: 07: 51.901 : : Human piñata
    01: 12: 16.916 : : California Regal Sedans
    01: 15: 43.163 : : Motive
    01: 18: 40.757 : : Cable Repair Specialists
    01: 26: 34.814 : : Blue 2/9690D
    01: 33: 41.782 : : Entombed
    01: 37: 15.287 : : “Can I have your attention, please?”
    01: 42: 08.455 : : Trust Taggarene
    01: 44: 59.376 : : “I love your work”
    01: 48: 11.151 : : Pulling back the curtain
    01: 52: 23.653 : : “This is the Game”
    01: 59: 13.479 : : Cordially invited
    02: 03: 29.610 : : End credits


    Игра/The Game (1997) HybridRip [H.264] [hand made 16:9]
    Рейтинг →
     (голосов: 1, оценка 5/5, голосовать можно 1 раз )

    Другие торренты по теме:

  • Ranpo Kitan: Game of Laplace / Rampo Kitan: Game of Laplace / Таинственные истории Эдогавы Рампо: Игра Лапласа [2015, TV, 6 из 11 ep] HDTVRip 720p Raw скачать через торрент бесплатно
  • Gekijouban Kuroko no Baske: Last Game | Kurokos basketbal: Last Game | Баскетбол Куроко: последняя игра [2017, Movie] BDRip 1080p raw
  • Ou-sama Game The Animation / Kings Game The Animation / Королевская игра [2017, TV, 1 из 12] HDTV 720p raw
  • Ousama Game The Animation / Kings Game The Animation / Королевская Игра [2017, TV, 1 из 12] WEB-DL 720p Raw+Rus
  • No Game No Life | Игра на выживание | Нет игры - нет жизни [2014, TV, 8 из 12 эп.] BDrip 1080p raw скачать через торрент бесплатно
  • Шерлок Холмс: Игра теней / Sherlock Holmes: A Game of Shadows(2011) BDRip [1080p] ATV
  • Игра / Игры разведок / The Game (2014) WEB-DLRip [H.264 / 720p-LQ] (сезон 1, серии 1 из 6) CSS (обновляемая) скачать через торрент бесплатно
  • Игра / Игры разведок / The Game (2014) WEB-DLRip (сезон 1, серии 1 из 6) CSS (обновляемая) скачать через торрент бесплатно


    • Комментарии (0):

      Информация

      Информация

        Посетители, находящиеся в группе Гости, не могут оставлять комментарии в данной новости.

        ↓ Меню




        ↓ Опрос

        Вы добавили сайт в закладки?
        Да
        Нет


        Популярное