.
Авторизация | Регистрация
bitok.xyz
» » Гладиатор / Gladiator (2000) HybridRip [H.264] [Theatrical Cut] [hand made 16:9] торрент скачать бесплатно


    Гладиатор / Gladiator (2000) HybridRip [H.264] [Theatrical Cut] [hand made 16:9] торрент скачать бесплатно

    Дата: 20-04-2019, 05:00 | .torrent скачали: 3

    Гладиатор / Gladiator (2000) HybridRip [H.264] [Theatrical Cut] [hand made 16:9]Производство: США, Великобритания/DreamWorks, Universal Pictures
    Жанр: Боевик, Драма, Приключения
    Режиссер: Ридли Скотт

    Актеры
    Рассел Кроу, Хоакин Феникс, Конни Нильсен, Оливер Рид, Ричард Харрис, Дерек Джекоби, Джимон Хунсу, Дэвид Скофилд, Джон Шрэпнел, Томас Арана

    Описание

    В великой Римской империи не было военачальника, равного генералу Максимусу. Непобедимые легионы, которыми командовал этот благородный воин, боготворили его и могли последовать за ним даже в ад.
    Но случилось так, что отважный Максимус, готовый сразиться с любым противником в честном бою, оказался бессилен против вероломных придворных интриг. Генерала предали и приговорили к смерти. Чудом избежав гибели, Максимус становится гладиатором.
    Быстро снискав себе славу в кровавых поединках, он оказывается в знаменитом римском Колизее, на арене которого он встретится в смертельной схватке со своим заклятым врагом…

    Возраст: 16+ (зрителям, достигшим 16 лет)
    Рейтинг MPAA: R (лицам до 17 лет обязательно присутствие взрослого)
    Продолжительность: 02: 33: 51
    Качество видео: HybridRip-AVC
    Перевод: Дублированный
    Субтитры: Русские, английские
    Видео: AVC/H.264, 1040x586, ~2294 kbps
    Аудио: AC3, 6 ch, 384 kbps
    General
    Unique ID : 105010227382588118463284042836988421580 (0x4F003BF07CE5F5B97BB076EFA74C65CC)
    Complete name : D: Гладиатор_2000_HDTVRIP-AVC_O.M_-=DoMiNo=-.mkv
    Format : Matroska
    Format version : Version 4
    File size : 2.88 GiB
    Duration : 2 h 33 min
    Overall bit rate : 2 681 kb/s
    Movie name : Гладиатор
    Description : В великой Римской империи не было военачальника, равного генералу Максимусу. Непобедимые легионы, которыми командовал этот благородный воин, боготворили его и могли последовать за ним даже в ад. Но случилось так, что отважный Максимус, готовый сразиться с любым противником в честном бою, оказался бессилен против вероломных придворных интриг. Генерала предали и приговорили к смерти. Чудом избежав гибели, Максимус становится гладиатором. Быстро снискав себе славу в кровавых поединках, он оказывается в знаменитом римском Колизее, на арене которого он встретится в смертельной схватке со своим заклятым врагом…
    Writing application : XviD4PSP 7.0.447 DAILY
    Writing library : Lavf57.71.100
    ErrorDetectionType : Per level 1
    Attachments : poster.jpg
    ACTORS : Рассел Кроу, Хоакин Феникс,
    COUNTRY : США
    DATE : 2000
    DIRECTOR : Ридли Скотт
    ENCODING_INFO : MATROSKA, WEBM MKV Пользовательский/MPEG2 X264 VBR-2P 2294kbps Пользовательский/AC3 COPY Безопасное
    GENRE : боевик, драма, приключения
    HD_VIDEO : 1
    IMDB_RATING : 8.5
    Language : und
    MEDIA_TYPE : 9
    ORIGINAL_TITLE : Gladiator
    RATING : 8.59
    Video
    ID : 1
    Format : AVC
    Format/Info : Advanced Video Codec
    Format profile : High@L4.1
    Format settings : CABAC/11 Ref Frames
    Format settings, CABAC : Yes
    Format settings, ReFrames : 11 frames
    Codec ID : V_MPEG4/ISO/AVC
    Duration : 2 h 33 min
    Bit rate : 2 294 kb/s
    Width : 1 040 pixels
    Height : 586 pixels
    Display aspect ratio : 16: 9
    Frame rate mode : Constant
    Frame rate : 23.976 (24000/1001) FPS
    Color space : YUV
    Chroma subsampling : 4: 2: 0
    Bit depth : 8 bits
    Scan type : Progressive
    Bits/(Pixel*Frame) : 0.157
    Stream size : 2.41 GiB (84%)
    Title : RIP_BY_-=DoMiNo=-
    Writing library : x264 core 155 r2901M 7d0ff22
    Encoding settings : cabac=1/ref=11/deblock=1: -1: -1/analyse=0x3: 0x133/me=umh/subme=11/psy=1/psy_rd=1.00: 0.05/mixed_ref=1/me_range=48/chroma_me=1/trellis=2/8x8dct=1/cqm=0/deadzone=21, 11/fast_pskip=0/chroma_qp_offset=-3/threads=6/lookahead_threads=1/sliced_threads=0/nr=0/decimate=1/interlaced=0/bluray_compat=0/constrained_intra=0/bframes=12/b_pyramid=2/b_adapt=2/b_bias=0/direct=3/weightb=1/open_gop=0/weightp=2/keyint=240/keyint_min=24/scenecut=40/intra_refresh=0/rc_lookahead=100/rc=2pass/mbtree=0/bitrate=2294/ratetol=1.0/qcomp=0.70/qpmin=0/qpmax=69/qpstep=4/cplxblur=20.0/qblur=0.5/vbv_maxrate=50000/vbv_bufsize=50000/nal_hrd=none/filler=0/ip_ratio=1.40/pb_ratio=1.30/aq=1: 0.70
    Language : English
    Default : Yes
    Forced : No
    Color range : Limited
    Color primaries : BT.709
    Transfer characteristics : BT.709
    Matrix coefficients : BT.709
    Audio
    ID : 2
    Format : AC-3
    Format/Info : Audio Coding 3
    Commercial name : Dolby Digital
    Codec ID : A_AC3
    Duration : 2 h 33 min
    Bit rate mode : Constant
    Bit rate : 384 kb/s
    Channel(s) : 6 channels
    Channel layout : L R C LFE Ls Rs
    Sampling rate : 48.0 kHz
    Frame rate : 31.250 FPS (1536 SPF)
    Bit depth : 16 bits
    Compression mode : Lossy
    Stream size : 423 MiB (14%)
    Title : Дубляж
    Language : Russian
    Service kind : Complete Main
    Default : Yes
    Forced : No
    Text #1
    ID : 3
    Format : UTF-8
    Codec ID : S_TEXT/UTF8
    Codec ID/Info : UTF-8 Plain Text
    Language : Russian
    Default : Yes
    Forced : No
    Text #2
    ID : 4
    Format : UTF-8
    Codec ID : S_TEXT/UTF8
    Codec ID/Info : UTF-8 Plain Text
    Language : English
    Default : No
    Forced : No


    Гладиатор/Gladiator (2000) HybridRip [H.264] [Theatrical Cut] [hand made 16:9]
    Рейтинг →
     (голосов: 1, оценка 3/5, голосовать можно 1 раз )

    Другие торренты по теме:

  • Гладиатор / Gladiator (2000) HDTVRip [open matte] [h264] [AVO]
  • Гладиатор / Gladiator (2000) BDRemux [H.264 / 1080p] REMASTERED [Extended Cut] [10th Anniversary Edition] скачать через торрент бесплатно
  • Гладиатор / Gladiator (2000) BDRip [H.264 / 1080p] [10th Anniversary Remastered Edition] [Theatrical & Extended Cut] скачать через торрент бесплатно
  • Гладиатор / Gladiator (2000) BDRip [H.264 / 720p] [Extended Cut]
  • Гладиатор / Gladiator [10th Anniversary Remastered Edition] [Extended Cut] (2000) BDRip [H.265 / 1080p]
  • Гладиатор / Gladiator (1992) WEB-DLRip
  • Гладиатор / Gladiator (2000) HDTVRip [H.264 / 720p] [Open Matte] [Extended Cut]
  • Гладиатор / Gladiator (2000) BDRip [H.264 / 1080p] [10th Anniversary Remastered Edition] [Extended Cut]


    • Комментарии (0):

      Информация

      Информация

        Посетители, находящиеся в группе Гости, не могут оставлять комментарии в данной новости.

        ↓ Меню




        ↓ Опрос

        Вы добавили сайт в закладки?
        Да
        Нет


        Популярное