.
Авторизация | Регистрация

bitok.xyz

» » Закатать в асфальт / Dragged Across Concrete (2018) BDRip [H.264 / 1080p-LQ] [hand made 16:9] торрент скачать бесплатно


    Закатать в асфальт / Dragged Across Concrete (2018) BDRip [H.264 / 1080p-LQ] [hand made 16:9] торрент скачать бесплатно

    Дата: 19-05-2019, 05:02 | .torrent скачали: 4

    Закатать в асфальт / Dragged Across Concrete (2018) BDRip [H.264 / 1080p-LQ] [hand made 16:9]Производство: Канада, США/Unified Pictures, Assemble Media, Cinestate
    Жанр: Боевик, триллер, драма, криминал
    Режиссер: С. Крэйг Залер

    Актеры
    Мэл Гибсон, Винс Вон, Тори Киттлз, Дженнифер Карпентер, Майкл Джей Уайт, Лори Холден, Дон Джонсон, Томас Кречманн, Удо Кир, Лианнет Боррего

    Описание

    Старого ищейку Риджмана и безбашенного Энтони отстраняют от дел после того, как в сеть попадает видео, где напарники жестко выбивают признание из подозреваемого. Не имея других средств к существованию, экс-копы находят работу в криминальном подполье.

    Возраст: 18+ (зрителям, достигшим 18 лет. запрещено для детей)
    Рейтинг MPAA: R (лицам до 17 лет обязательно присутствие взрослого)
    Дата мировой премьеры: 3 сентября 2018
    Дата премьеры в России: 21 марта 2019

    Продолжительность: 02: 38: 51
    Качество видео: BDRip
    Перевод: Дублированный (iTunes)
    Субтитры: Русские (полные), английские (полные)
    Видео: AVC/H.264, 1920х1080, ~ 5 Mbps
    Аудио #1: AC3, 6 ch, 384 Kbps - Русский
    Аудио #2: AC3, 6 ch, 640 Kbps - Английский

    x264 info: frame I: 1662 Avg QP: 16.07 size: 170758
    x264 info: frame P: 41171 Avg QP: 19.33 size: 56530
    x264 info: frame B: 185695 Avg QP: 20.24 size: 18002
    Unique ID : 247936550253388015579363809655170386314 (0xBA86D7B78632071785BAB87E9CD5C98A)
    Complete name : D: TempNNMЗакатать в асфальт.2018.1080p.FS.mkv
    Format : Matroska
    Format version : Version 4/Version 2
    File size : 6.68 GiB
    Duration : 2h 38mn
    Overall bit rate : 6 024 Kbps
    Encoded date : UTC 2019-05-18 10: 16: 09
    Writing application : mkvmerge v9.8.0 (\'Kuglblids\') 64bit
    Writing library : libebml v1.3.4 + libmatroska v1.4.5
    Video
    ID : 1
    Format : AVC
    Format/Info : Advanced Video Codec
    Format profile : High@L4.1
    Format settings, CABAC : Yes
    Format settings, ReFrames : 4 frames
    Codec ID : V_MPEG4/ISO/AVC
    Duration : 2h 38mn
    Bit rate : 5 000 Kbps
    Width : 1 920 pixels
    Height : 1 080 pixels
    Display aspect ratio : 16: 9
    Frame rate mode : Constant
    Frame rate : 23.976 fps
    Color space : YUV
    Chroma subsampling : 4: 2: 0
    Bit depth : 8 bits
    Scan type : Progressive
    Bits/(Pixel*Frame) : 0.101
    Stream size : 5.41 GiB (81%)
    Writing library : x264 core 148 r2665M a01e339
    Encoding settings : cabac=1/ref=4/deblock=1: -3: -3/analyse=0x3: 0x113/me=umh/subme=10/psy=1/psy_rd=1.05: 0.10/mixed_ref=1/me_range=24/chroma_me=1/trellis=2/8x8dct=1/cqm=0/deadzone=21, 11/fast_pskip=0/chroma_qp_offset=-3/threads=5/lookahead_threads=1/sliced_threads=0/nr=0/decimate=0/interlaced=0/bluray_compat=0/constrained_intra=0/bframes=6/b_pyramid=2/b_adapt=2/b_bias=0/direct=1/weightb=1/open_gop=0/weightp=2/keyint=230/keyint_min=23/scenecut=40/intra_refresh=0/rc_lookahead=40/rc=2pass/mbtree=1/bitrate=5000/ratetol=1.0/qcomp=0.70/qpmin=3/qpmax=69/qpstep=4/cplxblur=20.0/qblur=0.5/ip_ratio=1.40/aq=2: 1.00
    Default : Yes
    Forced : No
    Audio #1
    ID : 2
    Format : AC-3
    Format/Info : Audio Coding 3
    Mode extension : CM (complete main)
    Format settings, Endianness : Big
    Codec ID : A_AC3
    Duration : 2h 38mn
    Bit rate mode : Constant
    Bit rate : 384 Kbps
    Channel(s) : 6 channels
    Channel positions : Front: L C R, Side: L R, LFE
    Sampling rate : 48.0 KHz
    Bit depth : 16 bits
    Compression mode : Lossy
    Stream size : 436 MiB (6%)
    Language : Russian
    Default : Yes
    Forced : No
    Audio #2
    ID : 3
    Format : AC-3
    Format/Info : Audio Coding 3
    Mode extension : CM (complete main)
    Format settings, Endianness : Big
    Codec ID : A_AC3
    Duration : 2h 38mn
    Bit rate mode : Constant
    Bit rate : 640 Kbps
    Channel(s) : 6 channels
    Channel positions : Front: L C R, Side: L R, LFE
    Sampling rate : 48.0 KHz
    Bit depth : 16 bits
    Compression mode : Lossy
    Stream size : 727 MiB (11%)
    Language : English
    Default : No
    Forced : No
    Text #1
    ID : 4
    Format : UTF-8
    Codec ID : S_TEXT/UTF8
    Codec ID/Info : UTF-8 Plain Text
    Title : full
    Language : Russian
    Default : No
    Forced : No
    Text #2
    ID : 5
    Format : UTF-8
    Codec ID : S_TEXT/UTF8
    Codec ID/Info : UTF-8 Plain Text
    Title : full
    Language : English
    Default : No
    Forced : No

    Скриншоты для ознакомления



    Все одноименные релизы в Клубе
    Время раздачи: 24/7 (до появления первых 3-5 скачавших)


    Закатать в асфальт/Dragged Across Concrete (2018) BDRip [H.264/1080p-LQ] [hand made 16:9]
    Рейтинг →
     (голосов: 1, оценка 4/5, голосовать можно 1 раз )

    Другие торренты по теме:

  • Закатать в асфальт / Dragged Across Concrete (2018) WEB-DLRip [MVO]
  • Закатать в асфальт / Dragged Across Concrete (2018) WEBRip [H.264 / 720p-LQ] [MVO]
  • Закатать в асфальт / Dragged Across Concrete (2018) WEB-DL [H.264 / 1080p-LQ] [MVO]
  • Закатать в асфальт / Dragged Across Concrete (2018) WEBRip [H.264 / 1080p] [MVO]
  • Закатать в асфальт / Dragged Across Concrete (2018) WEB-DLRip [MVO] [AD]
  • Закатать в асфальт / Dragged Across Concrete (2018) WEB-DLRip [H.264 / 1080p-LQ] [MVO] [AD]
  • Закатать в асфальт / Dragged Across Concrete (2018) BDRip [H.264 / 1080p] [MVO]
  • Закатать в асфальт / Dragged Across Concrete (2018) BDRip [H.264 / 720p]


    • Комментарии (0):

      Информация

      Информация

        Посетители, находящиеся в группе Гости, не могут оставлять комментарии в данной новости.

        ↓ Меню




        ↓ Опрос

        Вы добавили сайт в закладки?
        Да
        Нет


        Популярное