.
Авторизация | Регистрация

bitok.xyz

» » Мстители: Война бесконечности / Avengers: Infinity War (2018) HybridRip [H.264 / 720p] [Open Matte] торрент скачать бесплатно


    Мстители: Война бесконечности / Avengers: Infinity War (2018) HybridRip [H.264 / 720p] [Open Matte] торрент скачать бесплатно

    Дата: 19-05-2019, 05:02 | .torrent скачали: 1

    Мстители: Война бесконечности / Avengers: Infinity War (2018) HybridRip [H.264 / 720p] [Open Matte]Производство: США/Marvel Studios Inc.
    Жанр: Фантастика, Фэнтези, Приключения, Боевик
    Режиссер: Энтони Руссо, Джо Руссо

    Актеры
    Роберт Дауни мл., Крис Хемсворт, Марк Руффало, Крис Эванс, Скарлетт Йоханссон, Дон Чидл, Бенедикт Камбербэтч, Том Холланд (II), Чэдвик Боузмэн, Зои Салдана

    Описание

    Пока Мстители и их союзники продолжают защищать мир от различных опасностей, с которыми не смог бы справиться один супергерой, новая угроза возникает из космоса: Танос. Межгалактический тиран преследует цель собрать все шесть Камней Бесконечности — артефакты невероятной силы, с помощью которых можно менять реальность по своему желанию. Всё, с чем Мстители сталкивались ранее, вело к этому моменту — судьба Земли никогда ещё не была столь неопределённой.

    Возраст: 16+ (зрителям, достигшим 16 лет)
    Рейтинг MPAA: PG-13 (детям до 13 лет просмотр нежелателен)
    Релиз от: k.e.n MegaPeer
    Продолжительность: 02: 29: 21
    Качество видео: HybridRip 720p
    Перевод: Дублированный (Лицензия), авторский (одноголосый, закадровый)
    Субтитры: Русские (Full, Forсed, SDH), Английские (Full, Forсed, SDH Colored)
    Видео: AVC/H.264, 1280x720, 23.976 fps, 5192 kbps
    Аудио #1: AC3, 6 ch, 448 kbps (Русский) - DUB
    Аудио #2: AC3, 6 ch, 448 kbps (Русский) - AVO, Ю.Живов
    Аудио #3: AC3, 6 ch, 448 kbps (Русский) - AVO, М.Чадов
    Аудио #4: AC3, 6 ch, 448 kbps (Английский) - Оригинал
    x264 info: frame I: 1723 Avg QP: 15.14 size: 135848 PSNR Mean Y: 48.00 U: 51.05 V: 51.06 Avg: 48.75 Global: 48.08
    x264 info: frame P: 52477 Avg QP: 17.87 size: 53066 PSNR Mean Y: 45.76 U: 50.37 V: 50.23 Avg: 46.73 Global: 45.96
    x264 info: frame B: 160655 Avg QP: 18.94 size: 17416 PSNR Mean Y: 45.31 U: 50.58 V: 50.38 Avg: 46.35 Global: 45.52
    Полное имя : D: ФИЛЬМЫМстители. Война бесконечности.2018 (Р.Дауни мл, Д.Бролин) Open Matte.mkv
    Формат : Matroska
    Версия формата : Version 2
    Размер файла : 7, 29 Гбайт
    Продолжительность : 2 ч. 29 м.
    Общий поток : 6989 Кбит/сек
    Название фильма : Avengers Infinity War 2018 HybridRip 720p от k.e.n MegaPeer
    Дата кодирования : UTC 2019-05-10 00: 07: 56
    Программа кодирования : mkvmerge v5.3.0 (\'I could have danced\') built on Feb 9 2012 10: 38: 07
    Библиотека кодирования : libebml v1.2.3 + libmatroska v1.3.0
    Attachments : poster.png
    Видео
    Идентификатор : 1
    Формат : AVC
    Формат/Информация : Advanced Video Codec
    Профиль формата : High@L4.1
    Параметр CABAC формата : Да
    Параметр ReFrames формата : 9 кадров
    Идентификатор кодека : V_MPEG4/ISO/AVC
    Продолжительность : 2 ч. 29 м.
    Битрейт : 5192 Кбит/сек
    Ширина : 1280 пикселей
    Высота : 720 пикселей
    Соотношение сторон : 16: 9
    Режим частоты кадров : Постоянный
    Частота кадров : 23, 976 (24000/1001) кадра/сек
    Цветовое пространство : YUV
    Субдискретизация насыщенности : 4: 2: 0
    Битовая глубина : 8 бит
    Тип развёртки : Прогрессивная
    Бит/(Пиксели*Кадры) : 0.235
    Размер потока : 5, 28 Гбайт (72%)
    Заголовок : k.e.n MegaPeer
    Библиотека кодирования : x264 core 157 r2969 d4099dd
    Настройки программы : cabac=1/ref=9/deblock=1: -3: -3/analyse=0x3: 0x133/me=umh/subme=11/psy=1/psy_rd=1.00: 0.15/mixed_ref=1/me_range=32/chroma_me=1/trellis=2/8x8dct=1/cqm=0/deadzone=21, 11/fast_pskip=0/chroma_qp_offset=-3/threads=12/lookahead_threads=2/sliced_threads=0/nr=0/decimate=0/interlaced=0/bluray_compat=0/constrained_intra=0/bframes=9/b_pyramid=2/b_adapt=2/b_bias=0/direct=3/weightb=1/open_gop=0/weightp=2/keyint=240/keyint_min=23/scenecut=40/intra_refresh=0/rc=2pass/mbtree=0/bitrate=5192/ratetol=1.0/qcomp=0.60/qpmin=0/qpmax=69/qpstep=4/cplxblur=20.0/qblur=0.5/ip_ratio=1.30/pb_ratio=1.26/aq=3: 0.90
    Язык : English
    Default : Да
    Forced : Нет
    Цветовой диапазон : Limited
    Основные цвета : BT.709
    Характеристики трансфера : BT.709
    Коэффициенты матрицы : BT.709
    Аудио #1
    Идентификатор : 2
    Формат : AC-3
    Формат/Информация : Audio Coding 3
    Расширение режима : CM (complete main)
    Параметр Endianness формата : Big
    Идентификатор кодека : A_AC3
    Продолжительность : 2 ч. 29 м.
    Вид битрейта : Постоянный
    Битрейт : 448 Кбит/сек
    Каналы : 6 каналов
    Расположение каналов : Front: L C R, Side: L R, LFE
    Частота : 48, 0 КГц
    Частота кадров : 31, 250 кадров/сек (1536 spf)
    Битовая глубина : 16 бит
    Метод сжатия : С потерями
    Размер потока : 479 Мбайт (6%)
    Заголовок : Дублированный
    Язык : Russian
    Default : Да
    Forced : Нет
    Аудио #2
    Идентификатор : 3
    Формат : AC-3
    Формат/Информация : Audio Coding 3
    Расширение режима : CM (complete main)
    Параметр Endianness формата : Big
    Идентификатор кодека : A_AC3
    Продолжительность : 2 ч. 29 м.
    Вид битрейта : Постоянный
    Битрейт : 448 Кбит/сек
    Каналы : 6 каналов
    Расположение каналов : Front: L C R, Side: L R, LFE
    Частота : 48, 0 КГц
    Частота кадров : 31, 250 кадров/сек (1536 spf)
    Битовая глубина : 16 бит
    Метод сжатия : С потерями
    Размер потока : 479 Мбайт (6%)
    Заголовок : Авторский Ю.Живов
    Язык : Russian
    Default : Нет
    Forced : Нет
    Аудио #3
    Идентификатор : 4
    Формат : AC-3
    Формат/Информация : Audio Coding 3
    Расширение режима : CM (complete main)
    Параметр Endianness формата : Big
    Идентификатор кодека : A_AC3
    Продолжительность : 2 ч. 29 м.
    Вид битрейта : Постоянный
    Битрейт : 448 Кбит/сек
    Каналы : 6 каналов
    Расположение каналов : Front: L C R, Side: L R, LFE
    Частота : 48, 0 КГц
    Частота кадров : 31, 250 кадров/сек (1536 spf)
    Битовая глубина : 16 бит
    Метод сжатия : С потерями
    Размер потока : 479 Мбайт (6%)
    Заголовок : Авторский М.Чадов
    Язык : Russian
    Default : Нет
    Forced : Нет
    Аудио #4
    Идентификатор : 5
    Формат : AC-3
    Формат/Информация : Audio Coding 3
    Расширение режима : CM (complete main)
    Параметр Endianness формата : Big
    Идентификатор кодека : A_AC3
    Продолжительность : 2 ч. 29 м.
    Вид битрейта : Постоянный
    Битрейт : 448 Кбит/сек
    Каналы : 6 каналов
    Расположение каналов : Front: L C R, Side: L R, LFE
    Частота : 48, 0 КГц
    Частота кадров : 31, 250 кадров/сек (1536 spf)
    Битовая глубина : 16 бит
    Метод сжатия : С потерями
    Размер потока : 479 Мбайт (6%)
    Заголовок : Оригинал
    Язык : English
    Default : Нет
    Forced : Нет
    Текст #1
    Идентификатор : 6
    Формат : UTF-8
    Идентификатор кодека : S_TEXT/UTF8
    Идентификатор кодека/Информация : UTF-8 Plain Text
    Заголовок : Forced
    Язык : Russian
    Default : Да
    Forced : Да
    Текст #2
    Идентификатор : 7
    Формат : UTF-8
    Идентификатор кодека : S_TEXT/UTF8
    Идентификатор кодека/Информация : UTF-8 Plain Text
    Заголовок : Full
    Язык : Russian
    Default : Нет
    Forced : Нет
    Текст #3
    Идентификатор : 8
    Формат : UTF-8
    Идентификатор кодека : S_TEXT/UTF8
    Идентификатор кодека/Информация : UTF-8 Plain Text
    Заголовок : SDH
    Язык : Russian
    Default : Нет
    Forced : Нет
    Текст #4
    Идентификатор : 9
    Формат : UTF-8
    Идентификатор кодека : S_TEXT/UTF8
    Идентификатор кодека/Информация : UTF-8 Plain Text
    Заголовок : Full
    Язык : English
    Default : Нет
    Forced : Нет
    Текст #5
    Идентификатор : 10
    Формат : UTF-8
    Идентификатор кодека : S_TEXT/UTF8
    Идентификатор кодека/Информация : UTF-8 Plain Text
    Заголовок : SDH
    Язык : English
    Default : Нет
    Forced : Нет
    Текст #6
    Идентификатор : 11
    Формат : UTF-8
    Идентификатор кодека : S_TEXT/UTF8
    Идентификатор кодека/Информация : UTF-8 Plain Text
    Заголовок : SDH Colored
    Язык : English
    Default : Нет
    Forced : Нет
    Меню
    00: 00: 00.000 : en: 00: 00: 00.000
    00: 11: 28.730 : en: 00: 11: 28.730
    00: 18: 13.884 : en: 00: 18: 13.884
    00: 27: 23.809 : en: 00: 27: 23.809
    00: 35: 48.813 : en: 00: 35: 48.813
    00: 42: 23.541 : en: 00: 42: 23.541
    00: 54: 12.875 : en: 00: 54: 12.875
    00: 59: 36.740 : en: 00: 59: 36.740
    01: 05: 07.153 : en: 01: 05: 07.153
    01: 10: 53.666 : en: 01: 10: 53.666
    01: 17: 06.956 : en: 01: 17: 06.956
    01: 24: 14.758 : en: 01: 24: 14.758
    01: 31: 08.004 : en: 01: 31: 08.004
    01: 42: 00.406 : en: 01: 42: 00.406
    01: 45: 57.810 : en: 01: 45: 57.810
    01: 53: 04.069 : en: 01: 53: 04.069
    01: 58: 52.917 : en: 01: 58: 52.917
    02: 03: 58.181 : en: 02: 03: 58.181
    02: 11: 13.282 : en: 02: 11: 13.282
    02: 17: 31.285 : en: 02: 17: 31.285
    Название фильма локализовано. Видеоряд BD наложен поверх WEB-DL Open Matte с помощью AutoOverlay AviSynth plugin.
    Open Matte версия фильма, имеет большее наполнение кадра, по сравнению с блюрэй.

    Скриншоты для ознакомления



    Все одноименные релизы в Клубе
    Время раздачи: 24/7 (до появления первых 3-5 скачавших)


    Мстители: Война бесконечности/Avengers: Infinity War (2018) HybridRip [H.264/720p] [Open Matte]
    Рейтинг →
     (голосов: 1, оценка 3/5, голосовать можно 1 раз )

    Другие торренты по теме:

  • Мстители: Война бесконечности / Avengers: Infinity War (2018) WEBRip [H.264 / 1080p] [Трейлер] [EN]
  • Мстители: Война бесконечности / Avengers: Infinity War (2018) TS [H.264 / 720p-LQ] [AD] [MVO]
  • Alan Silvestri - Мстители: Война бесконечности / Avengers: Infinity War (Deluxe Edition) (2018) [FLAC|Lossless|tracks]<Soundtrack>
  • Alan Silvestri - Мстители: Война бесконечности / Avengers: Infinity War (Deluxe Edition) (2018) [MP3|320 Kbps] <Soundtrack>
  • Мстители: Война бесконечности / Avengers: Infinity War (2018) TS Proper [H.264 / 720p] [AD]
  • Мстители: Война бесконечности / Avengers: Infinity War (2018) TS Proper [H.264]
  • Мстители: Война бесконечности / Avengers: Infinity War (2018) WEB-DLRip [H.264 / 1080p-LQ] [Line, AD]
  • Мстители: Война бесконечности / Avengers: Infinity War (2018) WEB-DL [H.264 / 1080p-LQ] [EN]


    • Комментарии (0):

      Информация

      Информация

        Посетители, находящиеся в группе Гости, не могут оставлять комментарии в данной новости.

        ↓ Меню




        ↓ Опрос

        Вы добавили сайт в закладки?
        Да
        Нет


        Популярное