.
Авторизация | Регистрация

bitok.xyz

» » Капитан Марвел / Captain Marvel (2019) BDRip [H.264 / 1080p-LQ] [hand made 16:9] торрент скачать бесплатно


    Капитан Марвел / Captain Marvel (2019) BDRip [H.264 / 1080p-LQ] [hand made 16:9] торрент скачать бесплатно

    Дата: 3-06-2019, 05:00 | .torrent скачали: 3

    Капитан Марвел / Captain Marvel (2019) BDRip [H.264 / 1080p-LQ] [hand made 16:9]Производство: США/Marvel Studios Inc.
    Жанр: Фантастика, Боевик, Приключения
    Режиссер: Анна Боден, Райан Флек
    Продюсер: Кевин Файги, Виктория Алонсо, Луис Д’Эспозито

    Актеры
    Бри Ларсон, Сэмюэл Л. Джексон, Бен Мендельсон, Джуд Лоу, Аннетт Бенинг, Лашана Линч, Кларк Грегг, Рюн Темт, Джемма Чан, Альхенис Перес Сото

    Описание

    После столкновения с враждующими инопланетными расами пилот военно-воздушных сил Кэрол Дэнверс обретает суперсилу и становится неуязвимой. Героине предстоит совладать со своими новыми способностями, чтобы противостоять могущественному врагу.

    Возраст: 16+ (зрителям, достигшим 16 лет)
    Рейтинг MPAA: PG-13 (детям до 13 лет просмотр нежелателен)
    Дата мировой премьеры: 27 февраля 2019
    Дата российской премьеры: 7 марта 2019, WDSSPR

    Продолжительность: 02: 03: 42
    Качество видео: BDRip
    Перевод: Дублированный (iTunes)
    Субтитры: Русские (форс., полные), английские (полные)
    Видео: AVC/H.264, 1920x1080, ~5 Mbps
    Аудио #1: АС3, 6 ch, 384 kbps - русский
    Аудио #2: AC3, 6 ch, 640 kbps - английский

    x264 info: frame I: 1418 Avg QP: 15.95 size: 139297
    x264 info: frame P: 50714 Avg QP: 17.04 size: 51285
    x264 info: frame B: 125825 Avg QP: 19.35 size: 14621
    Unique ID : 236941508639539131462898848023918381938 (0xB241464FD64C7A4ECC8AF1AF0A0F8B72)
    Complete name : D: TempNNMCaptain Marvel.2019.1080p.FS.mkv
    Format : Matroska
    Format version : Version 4/Version 2
    File size : 5.21 GiB
    Duration : 2h 3mn
    Overall bit rate : 6 028 Kbps
    Movie name : Captain.Marvel.2019
    Writing library : Lavf57.71.100
    Video
    ID : 1
    Format : AVC
    Format/Info : Advanced Video Codec
    Format profile : High@L4.1
    Format settings, CABAC : Yes
    Format settings, ReFrames : 4 frames
    Codec ID : V_MPEG4/ISO/AVC
    Duration : 2h 3mn
    Bit rate : 5 000 Kbps
    Width : 1 920 pixels
    Height : 1 080 pixels
    Display aspect ratio : 16: 9
    Frame rate mode : Constant
    Frame rate : 23.976 fps
    Color space : YUV
    Chroma subsampling : 4: 2: 0
    Bit depth : 8 bits
    Scan type : Progressive
    Bits/(Pixel*Frame) : 0.101
    Stream size : 4.22 GiB (81%)
    Writing library : x264 core 157 r2969 d4099dd
    Encoding settings : cabac=1/ref=4/deblock=1: -3: -3/analyse=0x3: 0x113/me=umh/subme=10/psy=1/psy_rd=1.05: 0.10/mixed_ref=1/me_range=24/chroma_me=1/trellis=2/8x8dct=1/cqm=0/deadzone=21, 11/fast_pskip=0/chroma_qp_offset=-3/threads=5/lookahead_threads=1/sliced_threads=0/nr=0/decimate=0/interlaced=0/bluray_compat=0/constrained_intra=0/bframes=6/b_pyramid=2/b_adapt=2/b_bias=0/direct=1/weightb=1/open_gop=0/weightp=2/keyint=240/keyint_min=24/scenecut=40/intra_refresh=0/rc=2pass/mbtree=0/bitrate=5000/ratetol=1.0/qcomp=0.70/qpmin=3/qpmax=69/qpstep=4/cplxblur=20.0/qblur=0.5/ip_ratio=1.40/pb_ratio=1.30/aq=2: 1.00
    Language : English
    Default : Yes
    Forced : No
    Audio #1
    ID : 2
    Format : AC-3
    Format/Info : Audio Coding 3
    Mode extension : CM (complete main)
    Format settings, Endianness : Big
    Codec ID : A_AC3
    Duration : 2h 3mn
    Bit rate mode : Constant
    Bit rate : 384 Kbps
    Channel(s) : 6 channels
    Channel positions : Front: L C R, Side: L R, LFE
    Sampling rate : 48.0 KHz
    Bit depth : 16 bits
    Compression mode : Lossy
    Stream size : 340 MiB (6%)
    Title : iTunes
    Language : Russian
    Default : Yes
    Forced : Yes
    Audio #2
    ID : 3
    Format : AC-3
    Format/Info : Audio Coding 3
    Mode extension : CM (complete main)
    Format settings, Endianness : Big
    Codec ID : A_AC3
    Duration : 2h 3mn
    Bit rate mode : Constant
    Bit rate : 640 Kbps
    Channel(s) : 6 channels
    Channel positions : Front: L C R, Side: L R, LFE
    Sampling rate : 48.0 KHz
    Bit depth : 16 bits
    Compression mode : Lossy
    Stream size : 566 MiB (11%)
    Title : Original
    Language : English
    Default : Yes
    Forced : No
    Text #1
    ID : 4
    Format : UTF-8
    Codec ID : S_TEXT/UTF8
    Codec ID/Info : UTF-8 Plain Text
    Title : Forced
    Language : Russian
    Default : Yes
    Forced : Yes
    Text #2
    ID : 5
    Format : UTF-8
    Codec ID : S_TEXT/UTF8
    Codec ID/Info : UTF-8 Plain Text
    Title : Full
    Language : Russian
    Default : Yes
    Forced : No
    Text #3
    ID : 6
    Format : UTF-8
    Codec ID : S_TEXT/UTF8
    Codec ID/Info : UTF-8 Plain Text
    Title : SDH
    Language : English
    Default : No
    Forced : No

    Скриншоты для ознакомления



    Все одноименные релизы в Клубе
    Время раздачи: 24/7 (до появления первых 3-5 скачавших)


    Капитан Марвел/Captain Marvel (2019) BDRip [H.264/1080p-LQ] [hand made 16:9]
    Рейтинг →
     (голосов: 1, оценка 3/5, голосовать можно 1 раз )

    Другие торренты по теме:

  • Капитан Марвел / Captain Marvel (2019) WEBRip [H.264 / 2160p] [4K] [Трейлер №2] [EN]
  • Капитан Марвел / Captain Marvel (2019) TS [H.264 / 720p-LQ] [AD]
  • Капитан Марвел / Captain Marvel (2019) TC [MVO] [AD]
  • Капитан Марвел / Captain Marvel (2019) WEB-DLRip [H.264 / 1080p-LQ] [AD]
  • Капитан Марвел / Captain Marvel (2019) WEBRip [H.264 / 720p-LQ] [MVO]
  • Капитан Марвел / Captain Marvel (2019) WEB-DL [H.264 / 1080p-LQ] [MVO]
  • Капитан Марвел / Captain Marvel (2019) WEB-DL [H.264 / 1080p-LQ] [Line]
  • Капитан Марвел / Captain Marvel (2019) WEBRip [H.264 / 720p-LQ] [Line]


    • Комментарии (0):

      Информация

      Информация

        Посетители, находящиеся в группе Гости, не могут оставлять комментарии в данной новости.

        ↓ Меню




        ↓ Опрос

        Вы добавили сайт в закладки?
        Да
        Нет


        Популярное