.
Авторизация | Регистрация

bitok.xyz

» » Капитан Марвел / Captain Marvel (2019) BDRip 3D [H.264 / 1080p-LQ] [вертикальная анаморфная стереопара] [hand made 16:9] торрент скачать бесплатно


    Капитан Марвел / Captain Marvel (2019) BDRip 3D [H.264 / 1080p-LQ] [вертикальная анаморфная стереопара] [hand made 16:9] торрент скачать бесплатно

    Дата: 24-06-2019, 05:00 | .torrent скачали: 5

    Капитан Марвел / Captain Marvel (2019) BDRip 3D [H.264 / 1080p-LQ] [вертикальная анаморфная стереопара] [hand made 16:9]Производство: США/Marvel Studios Inc.
    Жанр: Фантастика, Боевик, Приключения
    Режиссер: Анна Боден, Райан Флек
    Продюсер: Кевин Файги, Виктория Алонсо, Луис Д’Эспозито

    Актеры
    Бри Ларсон, Сэмюэл Л. Джексон, Бен Мендельсон, Джуд Лоу, Аннетт Бенинг, Лашана Линч, Кларк Грегг, Рюн Темт, Джемма Чан, Альхенис Перес Сото

    Описание

    После столкновения с враждующими инопланетными расами пилот военно-воздушных сил Кэрол Дэнверс обретает суперсилу и становится неуязвимой. Героине предстоит совладать со своими новыми способностями, чтобы противостоять могущественному врагу.

    Возраст: 16+ (зрителям, достигшим 16 лет)
    Рейтинг MPAA: PG-13 (детям до 13 лет просмотр нежелателен)
    Дата мировой премьеры: 27 февраля 2019
    Дата российской премьеры: 7 марта 2019, WDSSPR

    Продолжительность: 02: 03: 42
    Качество видео: BDRip 3D
    Перевод: Дублированный (iTunes)
    Субтитры: Русские (форс., полные), английские (полные)
    Видео: AVC/H.264, 1920x1080, ~8 Mbps
    Аудио #1: АС3, 6 ch, 384 kbps - русский
    Аудио #2: DTS, 6 ch, 1509 kbps - английский

    x264 info: frame I: 1800 Avg QP: 15.71 size: 160742
    x264 info: frame P: 45366 Avg QP: 18.12 size: 77548
    x264 info: frame B: 130770 Avg QP: 19.09 size: 27641
    Unique ID : 209465950030870597277216767172084396606 (0x9D95ACAF44F16D469F939EA45362723E)
    Complete name : D: TempNNMКапитан Марвел.2019.FS.mkv
    Format : Matroska
    Format version : Version 4/Version 2
    File size : 8.55 GiB
    Duration : 2h 3mn
    Overall bit rate : 9 896 Kbps
    Movie name : CAPTAIN_MARVELL_2019_3D2DRMX_BL.Title0
    Encoded date : UTC 2019-06-23 03: 04: 01
    Writing application : mkvmerge v9.8.0 (\'Kuglblids\') 64bit
    Writing library : Lavf57.25.100
    Video
    ID : 1
    Format : AVC
    Format/Info : Advanced Video Codec
    Format profile : High@L4.1
    Format settings, CABAC : Yes
    Format settings, ReFrames : 4 frames
    Codec ID : V_MPEG4/ISO/AVC
    Duration : 2h 3mn
    Bit rate : 8 000 Kbps
    Width : 1 920 pixels
    Height : 1 080 pixels
    Display aspect ratio : 16: 9
    Frame rate mode : Constant
    Frame rate : 23.976 fps
    Color space : YUV
    Chroma subsampling : 4: 2: 0
    Bit depth : 8 bits
    Scan type : Progressive
    Bits/(Pixel*Frame) : 0.161
    Stream size : 6.74 GiB (79%)
    Writing library : x264 core 148 r2665M a01e339
    Encoding settings : cabac=1/ref=4/deblock=1: -3: -3/analyse=0x3: 0x113/me=umh/subme=11/psy=1/psy_rd=1.05: 0.10/mixed_ref=1/me_range=24/chroma_me=1/trellis=2/8x8dct=1/cqm=0/deadzone=21, 11/fast_pskip=0/chroma_qp_offset=-3/threads=5/lookahead_threads=1/sliced_threads=0/nr=0/decimate=0/interlaced=0/bluray_compat=0/constrained_intra=0/bframes=6/b_pyramid=2/b_adapt=2/b_bias=0/direct=1/weightb=1/open_gop=0/weightp=2/keyint=230/keyint_min=23/scenecut=40/intra_refresh=0/rc_lookahead=40/rc=2pass/mbtree=1/bitrate=8000/ratetol=1.0/qcomp=0.70/qpmin=3/qpmax=69/qpstep=4/cplxblur=20.0/qblur=0.5/ip_ratio=1.40/aq=2: 1.00
    Default : Yes
    Forced : No
    Audio #1
    ID : 2
    Format : AC-3
    Format/Info : Audio Coding 3
    Mode extension : CM (complete main)
    Format settings, Endianness : Big
    Codec ID : A_AC3
    Duration : 2h 3mn
    Bit rate mode : Constant
    Bit rate : 384 Kbps
    Channel(s) : 6 channels
    Channel positions : Front: L C R, Side: L R, LFE
    Sampling rate : 48.0 KHz
    Bit depth : 16 bits
    Compression mode : Lossy
    Stream size : 340 MiB (4%)
    Language : Russian
    Default : Yes
    Forced : No
    Audio #2
    ID : 3
    Format : DTS
    Format/Info : Digital Theater Systems
    Mode : 16
    Format settings, Endianness : Big
    Codec ID : A_DTS
    Duration : 2h 3mn
    Bit rate mode : Constant
    Bit rate : 1 509 Kbps
    Channel(s) : 6 channels
    Channel positions : Front: L C R, Side: L R, LFE
    Sampling rate : 48.0 KHz
    Bit depth : 24 bits
    Compression mode : Lossy
    Stream size : 1.30 GiB (15%)
    Language : English
    Default : No
    Forced : No
    Text #1
    ID : 4
    Format : UTF-8
    Codec ID : S_TEXT/UTF8
    Codec ID/Info : UTF-8 Plain Text
    Language : Russian
    Default : Yes
    Forced : No
    Text #2
    ID : 5
    Format : UTF-8
    Codec ID : S_TEXT/UTF8
    Codec ID/Info : UTF-8 Plain Text
    Language : Russian
    Default : No
    Forced : No
    Text #3
    ID : 6
    Format : UTF-8
    Codec ID : S_TEXT/UTF8
    Codec ID/Info : UTF-8 Plain Text
    Language : English
    Default : No
    Forced : No

    Скриншоты для ознакомления



    Все одноименные релизы в Клубе
    Время раздачи: 24/7 (до появления первых 3-5 скачавших)


    Капитан Марвел/Captain Marvel (2019) BDRip 3D [H.264/1080p-LQ] [вертикальная анаморфная стереопара] [hand made 16:9]
    Рейтинг →
     (голосов: 1, оценка 5/5, голосовать можно 1 раз )

    Другие торренты по теме:

  • Капитан Марвел / Captain Marvel (2019) WEBRip [H.264 / 2160p] [4K] [Трейлер №2] [EN]
  • Капитан Марвел / Captain Marvel (2019) TS [H.264 / 720p-LQ] [AD]
  • Капитан Марвел / Captain Marvel (2019) TC [MVO] [AD]
  • Капитан Марвел / Captain Marvel (2019) WEB-DLRip [H.264 / 1080p-LQ] [AD]
  • Капитан Марвел / Captain Marvel (2019) WEBRip [H.264 / 720p-LQ] [MVO]
  • Капитан Марвел / Captain Marvel (2019) WEB-DL [H.264 / 1080p-LQ] [MVO]
  • Капитан Марвел / Captain Marvel (2019) WEB-DL [H.264 / 1080p-LQ] [Line]
  • Капитан Марвел / Captain Marvel (2019) WEBRip [H.264 / 720p-LQ] [Line]


    • Комментарии (0):

      Информация

      Информация

        Посетители, находящиеся в группе Гости, не могут оставлять комментарии в данной новости.

        ↓ Меню




        ↓ Опрос

        Вы добавили сайт в закладки?
        Да
        Нет


        Популярное