.
Авторизация | Регистрация
bitok.xyz
» » Мы / Wij (2016) DVDRip [MVO, AD] торрент скачать бесплатно


    Мы / Wij (2016) DVDRip [MVO, AD] торрент скачать бесплатно

    Дата: 3-07-2019, 05:00 | .torrent скачали: 154

    Мы / Wij (2016) DVDRip [MVO, AD]Производство: Нидерланды/Habbekrats, uMedia Family
    Жанр: Драма
    Режиссер: Рене Эллер

    Актеры
    Полин Кастелейн, Эме Клэйс, Аксель Дезелер, Винсент де Бур, Том Де Вриз, Ник Де Вухт, Лаура Дрозопулос, Питер Эмбрехтс, Гонни гаикер, Тижмен Говертс

    Описание

    Во время жаркого лета в бельгийско-голландской пограничной деревне восемь подростков играют в игры раскрепощения, чтобы избежать однообразие жизни. Они бросают вызов друг другу и себе самим, и довольно скоро их сексуальное любопытство начинает размывать границы между правильным и неправильным. Поскольку невинность сокрушается в развратных играх и сексуальной эксплуатации, подростки скоро превращаются в безжалостных хищников.

    Возраст: 16+ (зрителям, достигшим 16 лет)
    Продолжительность: 01: 36: 16
    Качество видео: DVDRip
    Перевод: Многоголосый закадровый, профессиональный (Синема УС)
    Субтитры: отсутствуют
    Реклама: присутствуют аудио и видео вставки рекламы + баннер
    Видео: Xvid, 720x256, ~1 576 Kbps (0.357 bit/pixel)
    Аудио: AC3, 2 ch, 448 Kbps, CBR
    Общее
    Полное имя : G: РаздачаФильмыWij.2016.P.DVDRip.avi
    Формат : AVI
    Формат/Информация : Audio Video Interleave
    Размер файла : 1, 37 Гбайт
    Продолжительность : 1 ч. 36 м.
    Общий поток : 2033 Кбит/сек
    Программа кодирования : VirtualDubMod 1.10.5ru (build 2550/release)
    Библиотека кодирования : VirtualDubMod build 2550/release
    Видео
    Идентификатор : 0
    Формат : MPEG-4 Visual
    Профиль формата : Advanced Simple@L5
    Настройки формата : BVOP2/Custom Matrix
    Параметр BVOP формата : 2
    Параметр QPel формата : Нет
    Параметр GMC формата : Без точки перехода
    Параметр матрицы формата : Выборочная
    Идентификатор кодека : XVID
    Идентификатор кодека/Подсказка : XviD
    Продолжительность : 1 ч. 36 м.
    Битрейт : 1576 Кбит/сек
    Ширина : 720 пикселей
    Высота : 256 пикселей
    Соотношение сторон : 2, 813
    Частота кадров : 23, 976 (24000/1001) кадра/сек
    Цветовое пространство : YUV
    Субдискретизация насыщенности : 4: 2: 0
    Битовая глубина : 8 бит
    Тип развёртки : Прогрессивная
    Метод сжатия : С потерями
    Бит/(Пиксели*Кадры) : 0.357
    Размер потока : 1, 06 Гбайт (78%)
    Библиотека кодирования : XviD 1.2.1 (UTC 2008-12-04)
    Аудио
    Идентификатор : 1
    Формат : AC-3
    Формат/Информация : Audio Coding 3
    Коммерческое название : Dolby Digital
    Идентификатор кодека : 2000
    Продолжительность : 1 ч. 36 м.
    Вид битрейта : Постоянный
    Битрейт : 448 Кбит/сек
    Каналы : 2 канала
    Channel layout : L R
    Частота : 48, 0 КГц
    Частота кадров : 31, 250 кадров/сек (1536 SPF)
    Битовая глубина : 16 бит
    Метод сжатия : С потерями
    Размер потока : 308 Мбайт (22%)
    Выравнивание : Разделение по промежуткам
    Продолжительность промежутка : 42 мс. (1, 00 видеокадр)
    Время предзагрузки промежутка : 500 мс.
    ServiceKind/String : Complete Main

    Скриншоты для ознакомления




    Все одноименные релизы в Клубе
    Время раздачи: с 6: 00 до 22: 00 (GMT +2) (до появления первых 3-5 скачавших)

    Мы/Wij (2016) DVDRip [MVO, AD]
    Рейтинг →
     (голосов: 1, оценка 3/5, голосовать можно 1 раз )

    Другие торренты по теме:

  • Монолог (1972) DVDRip [H.264]
  • Мрачный закат / Sunset Grill (1993) DVDRip [H.264]
  • А поутру они проснулись (2003) DVDRip [H.264]
  • Леди Гамильтон / That Hamilton Woman (1941) DVDRip [DVO]
  • Виола целует всех / Viola bacia tutti (1998) DVDRip [H.264]
  • Мальтийский сокол / The Maltese Falcon (1941) DVDRip
  • Максимка (1952) DVDRip [H.264]
  • Бум 2 / La boum 2 (1982) DVDRip


    • Комментарии (0):

      Информация

      Информация

        Посетители, находящиеся в группе Гости, не могут оставлять комментарии в данной новости.

        ↓ Меню




        ↓ Опрос

        Вы добавили сайт в закладки?
        Да
        Нет


        Популярное