.
Авторизация | Регистрация

bitok.xyz

» » Нам терять нечего / Nichts zu verlieren (2018) HDTVRip [MVO] [AD] торрент скачать бесплатно


    Нам терять нечего / Nichts zu verlieren (2018) HDTVRip [MVO] [AD] торрент скачать бесплатно

    Дата: 8-07-2019, 12:36 | .torrent скачали: 1

    Нам терять нечего / Nichts zu verlieren (2018) HDTVRip [MVO] [AD]Производство: Германия, Австрия/Lieblingsfilm, Royal Pony Film, Bayerischer Rundfunk (BR)
    Жанр: Драма, комедия, криминал
    Режиссер: Вольфганг Мернбергер

    Актеры
    Георг Фридрих, Кристофер Шерф, Марсель Мохаб, Сюзанна Вольф, Йоханна Гастдорф, Лиза Вагнер, Эмили Кокс, Михаэль Гримм, Штефан Мерки, Бернхард Шюц

    Описание

    После не совсем удачного ограбления одного богатого художника двое бандитов-дилетантов захватывают старый туристский автобус, чтобы на нём быстрее смыться от полиции. Однако пассажиры автобуса оказались какими-то странными: их вообще не волнует, что они стали заложниками. Оказалось, что это не простые туристы, а люди, разочаровавшиеся в жизни и автобус вез их на реабилитацию. И для тех и для других получилась просто сумасшедшая поездка и со смешными, и с печальными коллизиями ...

    Дата мировой премьеры: 29 августа 2018
    Продолжительность: 01: 28: 45
    Качество видео: HDTVRip
    Перевод: Многоголосый закадровый, любительский (AlphaProject)
    Субтитры: Отсутствуют
    Реклама: Присутствует баннер.
    Видео: XviD, 720x400, ~1775 Kbps
    Аудио: AC-3, 2 ch, 384 Kbps

    Общее
    Полное имя : D: NNMНам терять нечегоNichts.zu.verlieren.2018..WEB-DLRip.avi
    Формат : AVI
    Формат/Информация : Audio Video Interleave
    Профиль формата : OpenDML
    Размер файла : 1, 35 Гбайт
    Продолжительность : 1 ч. 28 м.
    Общий поток : 2171 Кбит/сек
    Видео
    Идентификатор : 0
    Формат : MPEG-4 Visual
    Профиль формата : Advanced Simple@L5
    Параметр BVOP формата : 2
    Параметр QPel формата : Нет
    Параметр GMC формата : Без точки перехода
    Параметр матрицы формата : Default (H.263)
    Идентификатор кодека : XVID
    Идентификатор кодека/Подсказка : XviD
    Продолжительность : 1 ч. 28 м.
    Битрейт : 1775 Кбит/сек
    Ширина : 720 пикселей
    Высота : 400 пикселей
    Соотношение сторон : 16: 9
    Частота кадров : 23, 976 (24000/1001) кадра/сек
    Частота кадров в оригинале : 2, 395 кадра/сек
    Цветовое пространство : YUV
    Субдискретизация насыщенности : 4: 2: 0
    Битовая глубина : 8 бит
    Тип развёртки : Прогрессивная
    Метод сжатия : С потерями
    Бит/(Пиксели*Кадры) : 0.257
    Размер потока : 1, 10 Гбайт (82%)
    Библиотека кодирования : XviD 1.2.1 (UTC 2008-12-04)
    Аудио
    Идентификатор : 1
    Формат : AC-3
    Формат/Информация : Audio Coding 3
    Коммерческое название : Dolby Digital
    Идентификатор кодека : 2000
    Продолжительность : 1 ч. 28 м.
    Вид битрейта : Постоянный
    Битрейт : 384 Кбит/сек
    Каналы : 2 канала
    Channel layout : M M
    Частота : 48, 0 КГц
    Частота кадров : 31, 250 кадров/сек (1536 SPF)
    Битовая глубина : 16 бит
    Метод сжатия : С потерями
    Размер потока : 244 Мбайт (18%)
    Выравнивание : Соединение по промежуткам
    Продолжительность промежутка : 32 мс. (0, 77 видеокадр)
    ServiceKind/String : Complete Main

    Скриншоты для ознакомления



    Все одноименные релизы в Клубе Время раздачи: 24/7 (до появления первых 3-5 скачавших)


    Нам терять нечего/Nichts zu verlieren (2018) HDTVRip [MVO] [AD]
    Рейтинг →
     (голосов: 1, оценка 3/5, голосовать можно 1 раз )

    Другие торренты по теме:

  • Нам терять нечего / Nichts zu verlieren (2018) HDTVRip [H.264 / 720p-LQ] [MVO] [AD]
  • Нечего терять / Nothing to Lose (1997) HDTVRip скачать через торрент бесплатно
  • Alternativa / Альтернатива: Нечего терять (2011) [Ru] (1.7.5.808) Repack R.G. Catalyst
  • Нечего терять / Nothing to Lose (1997) WEB-DL [H.264 / 1080p]
  • Нечего терять / Nothing to Lose (1997) WEB-DLRip [H.264]
  • Нечего терять / TBS / Nothing to Lose (2008) BDRemux [H.264 / 1080p]
  • Нечего терять / TBS / Nothing to Lose (2008) BDRip [MVO]
  • Нечего терять / Nothing to Lose (1997) WEB-DLRip [H.264 / 720p]


    • Комментарии (0):

      Информация

      Информация

        Посетители, находящиеся в группе Гости, не могут оставлять комментарии в данной новости.

        ↓ Меню




        ↓ Опрос

        Вы добавили сайт в закладки?
        Да
        Нет


        Популярное