.
Авторизация | Регистрация

bitok.xyz

» » Нам терять нечего / Nichts zu verlieren (2018) HDTVRip [H.264 / 720p-LQ] [MVO] [AD] торрент скачать бесплатно


    Нам терять нечего / Nichts zu verlieren (2018) HDTVRip [H.264 / 720p-LQ] [MVO] [AD] торрент скачать бесплатно

    Дата: 8-07-2019, 12:36 | .torrent скачали: 0

    Нам терять нечего / Nichts zu verlieren (2018) HDTVRip [H.264 / 720p-LQ] [MVO] [AD]Производство: Германия, Австрия/Lieblingsfilm, Royal Pony Film, Bayerischer Rundfunk (BR)
    Жанр: Драма, комедия, криминал
    Режиссер: Вольфганг Мернбергер

    Актеры
    Георг Фридрих, Кристофер Шерф, Марсель Мохаб, Сюзанна Вольф, Йоханна Гастдорф, Лиза Вагнер, Эмили Кокс, Михаэль Гримм, Штефан Мерки, Бернхард Шюц

    Описание

    После не совсем удачного ограбления одного богатого художника двое бандитов-дилетантов захватывают старый туристский автобус, чтобы на нём быстрее смыться от полиции. Однако пассажиры автобуса оказались какими-то странными: их вообще не волнует, что они стали заложниками. Оказалось, что это не простые туристы, а люди, разочаровавшиеся в жизни и автобус вез их на реабилитацию. И для тех и для других получилась просто сумасшедшая поездка и со смешными, и с печальными коллизиями ...

    Дата мировой премьеры: 29 августа 2018
    Продолжительность: 01: 28: 45
    Качество видео: HDTVRip
    Перевод: Многоголосый закадровый, любительский (AlphaProject)
    Субтитры: Отсутствуют
    Реклама: Присутствует баннер.
    Видео: AVC/H.264, 1280x720, ~5294 Kbps
    Аудио: AC-3, 2 ch, 384 Kbps

    Общее
    Полное имя : D: NNMНам терять нечегоNichts.zu.verlieren.2018..WEB-DLRip.720p-LQ.mkv
    Формат : Matroska
    Версия формата : Version 2
    Размер файла : 3, 59 Гбайт
    Продолжительность : 1 ч. 28 м.
    Режим общего битрейта : Постоянный
    Общий поток : 5794 Кбит/сек
    Программа кодирования : libmatroska 1.4.1
    Библиотека кодирования : SolveigMM Matroska Muxer Version 1.0.1801.31
    Видео
    Идентификатор : 1
    Формат : AVC
    Формат/Информация : Advanced Video Codec
    Профиль формата : High@L4.1
    Настройки формата : CABAC/4 Ref Frames
    Параметр CABAC формата : Да
    Параметр RefFrames формата : 4 кадра
    Идентификатор кодека : V_MPEG4/ISO/AVC
    Продолжительность : 1 ч. 28 м.
    Вид битрейта : Постоянный
    Битрейт : 5294 Кбит/сек
    Номинальный битрейт : 6000 Кбит/сек
    Ширина : 1280 пикселей
    Высота : 720 пикселей
    Соотношение сторон : 16: 9
    Режим частоты кадров : Постоянный
    Частота кадров : 23, 976 (24000/1001) кадра/сек
    Стандарт вещания : Component
    Цветовое пространство : YUV
    Субдискретизация насыщенности : 4: 2: 0
    Битовая глубина : 8 бит
    Тип развёртки : Прогрессивная
    Бит/(Пиксели*Кадры) : 0.240
    Размер потока : 3, 28 Гбайт (91%)
    Default : Нет
    Forced : Нет
    Цветовой диапазон : Limited
    Основные цвета : BT.709
    Характеристики трансфера : BT.709
    Коэффициенты матрицы : BT.709
    Аудио
    Идентификатор : 2
    Формат : AC-3
    Формат/Информация : Audio Coding 3
    Коммерческое название : Dolby Digital
    Идентификатор кодека : A_AC3
    Продолжительность : 1 ч. 28 м.
    Вид битрейта : Постоянный
    Битрейт : 384 Кбит/сек
    Каналы : 2 канала
    Channel layout : M M
    Частота : 48, 0 КГц
    Частота кадров : 31, 250 кадров/сек (1536 SPF)
    Битовая глубина : 16 бит
    Метод сжатия : С потерями
    Размер потока : 244 Мбайт (7%)
    ServiceKind/String : Complete Main
    Default : Нет
    Forced : Нет

    Скриншоты для ознакомления



    Все одноименные релизы в Клубе Время раздачи: 24/7 (до появления первых 3-5 скачавших)


    Нам терять нечего/Nichts zu verlieren (2018) HDTVRip [H.264/720p-LQ] [MVO] [AD]
    Рейтинг →
     (голосов: 1, оценка 5/5, голосовать можно 1 раз )

    Другие торренты по теме:

  • Нам терять нечего / Nichts zu verlieren (2018) HDTVRip [MVO] [AD]
  • Нечего терять / Nothing to Lose (1997) HDTVRip скачать через торрент бесплатно
  • Alternativa / Альтернатива: Нечего терять (2011) [Ru] (1.7.5.808) Repack R.G. Catalyst
  • Нечего терять / Nothing to Lose (1997) WEB-DL [H.264 / 1080p]
  • Нечего терять / Nothing to Lose (1997) WEB-DLRip [H.264]
  • Нечего терять / TBS / Nothing to Lose (2008) BDRemux [H.264 / 1080p]
  • Нечего терять / TBS / Nothing to Lose (2008) BDRip [MVO]
  • Нечего терять / Nothing to Lose (1997) WEB-DLRip [H.264 / 720p]


    • Комментарии (0):

      Информация

      Информация

        Посетители, находящиеся в группе Гости, не могут оставлять комментарии в данной новости.

        ↓ Меню




        ↓ Опрос

        Вы добавили сайт в закладки?
        Да
        Нет


        Популярное