.
Авторизация | Регистрация

bitok.xyz

» » Войны бессмертных / The Immortal Wars (2018) WEBRip [H.264 / 720p-LQ] [MVO] [AD] торрент скачать бесплатно


    Войны бессмертных / The Immortal Wars (2018) WEBRip [H.264 / 720p-LQ] [MVO] [AD] торрент скачать бесплатно

    Дата: 15-07-2019, 05:00 | .torrent скачали: 6

    Войны бессмертных / The Immortal Wars (2018) WEBRip [H.264 / 720p-LQ] [MVO] [AD]Производство: США/Carcass Studios
    Жанр: Боевик
    Режиссер: Joe Lujan

    Актеры
    Эрик Робертс, Том Сайзмор, Билл Оберст мл., Шон Жерардо, Джеки Герхарди, Тейлор Килгор, Линдси Крус, Марк Энтони Джастис, Джеймс Бахм, Кристина Буэнавентура

    Описание

    В постапокалиптическом мире, разделённом на несколько супер-государств, правящая элита каждый год проводит смертельный турнир между девиантами - новой расой, получившей сверхспособности в результате облучения. Олив - первый девиант десятой категории за всю историю турнира, решает предпринять попытку разорвать порочный круг и уничтожить систему угнетения при поддержке других девиантов.

    Продолжительность: 01: 32: 13
    Качество видео: WEBRip
    Перевод: Многоголосый закадровый, любительский (HiWay Grope)
    Субтитры: Отсутствуют
    Реклама: Присутствуют вставки текстовой рекламы
    Видео: AVC/H.264, 1280x530, ~2905 Kbps
    Аудио: AC-3, 2 ch, 192 Kbps

    Общее
    Полное имя : D: NNMВойны Бессмертных 2The.Immortal.Wars.2018.WEBRip.720p-LQ.mkv
    Формат : Matroska
    Версия формата : Version 2
    Размер файла : 2, 04 Гбайт
    Продолжительность : 1 ч. 32 м.
    Режим общего битрейта : Переменный
    Общий поток : 3160 Кбит/сек
    Программа кодирования : libmatroska 1.4.1
    Библиотека кодирования : SolveigMM Matroska Muxer Version 1.0.1801.31
    Видео
    Идентификатор : 1
    Формат : AVC
    Формат/Информация : Advanced Video Codec
    Профиль формата : High@L5
    Настройки формата : CABAC/4 Ref Frames
    Параметр CABAC формата : Да
    Параметр RefFrames формата : 4 кадра
    Идентификатор кодека : V_MPEG4/ISO/AVC
    Продолжительность : 1 ч. 32 м.
    Вид битрейта : Переменный
    Битрейт : 2905 Кбит/сек
    Максимальный битрейт : 12, 0 Мбит/сек
    Ширина : 1280 пикселей
    Высота : 530 пикселей
    Соотношение сторон : 2, 40: 1
    Режим частоты кадров : Постоянный
    Частота кадров : 23, 976 (24000/1001) кадра/сек
    Стандарт вещания : NTSC
    Цветовое пространство : YUV
    Субдискретизация насыщенности : 4: 2: 0
    Битовая глубина : 8 бит
    Тип развёртки : Прогрессивная
    Бит/(Пиксели*Кадры) : 0.179
    Размер потока : 1, 87 Гбайт (92%)
    Язык : English
    Default : Нет
    Forced : Нет
    Цветовой диапазон : Limited
    Основные цвета : BT.601 NTSC
    Характеристики трансфера : BT.601
    Коэффициенты матрицы : BT.601
    Аудио
    Идентификатор : 2
    Формат : AC-3
    Формат/Информация : Audio Coding 3
    Коммерческое название : Dolby Digital
    Идентификатор кодека : A_AC3
    Продолжительность : 1 ч. 32 м.
    Вид битрейта : Постоянный
    Битрейт : 192 Кбит/сек
    Каналы : 2 канала
    Channel layout : L R
    Частота : 48, 0 КГц
    Частота кадров : 31, 250 кадров/сек (1536 SPF)
    Битовая глубина : 16 бит
    Метод сжатия : С потерями
    Размер потока : 127 Мбайт (6%)
    ServiceKind/String : Complete Main
    Default : Нет
    Forced : Нет

    Скриншоты для ознакомления



    Все одноименные релизы в Клубе Время раздачи: 24/7 (до появления первых 3-5 скачавших)


    Войны бессмертных/The Immortal Wars (2018) WEBRip [H.264/720p-LQ] [MVO] [AD]
    Рейтинг →
     (голосов: 1, оценка 4/5, голосовать можно 1 раз )

    Другие торренты по теме:

  • Войны Бессмертных 2: Возрождение / The Immortal Wars: Resurgence (2019) WEB-DLRip [MVO] [AD]
  • Войны Бессмертных 2: Возрождение / The Immortal Wars: Resurgence (2019) WEB-DLRip [H.264 / 1080p-LQ] [MVO] [AD]


    • Комментарии (0):

      Информация

      Информация

        Посетители, находящиеся в группе Гости, не могут оставлять комментарии в данной новости.

        ↓ Меню




        ↓ Опрос

        Вы добавили сайт в закладки?
        Да
        Нет


        Популярное