.
Авторизация | Регистрация

bitok.xyz

» » Все, что осталось от революции / Tout ce quil me reste de la revolution (2018) WEBRip [H.264 / 720p-LQ] [MVO, AD] торрент скачать бесплатно


    Все, что осталось от революции / Tout ce quil me reste de la revolution (2018) WEBRip [H.264 / 720p-LQ] [MVO, AD] торрент скачать бесплатно

    Дата: 15-07-2019, 05:00 | .torrent скачали: 4

    Все, что осталось от революции / Tout ce quil me reste de la revolution (2018) WEBRip [H.264 / 720p-LQ] [MVO, AD]Производство: Франция/Agat Films Cie, Apsara Films, Acme Productions
    Жанр: Комедия
    Режиссер: Джудит Дэвис

    Актеры
    Джудит Дэвис, Малик Зиди, Клер Дюма, Симон Бакуше, Мелани Бэстель, Надир Легран, Мирей Перье, Ясин Уиша, Pat Belland, Самира Седира

    Описание

    Анжель было восемь лет, когда в восточном Берлине открылся первый МакДональдс. С тех пор она борется с заклятием своего поколения - в мире политики затишье. Она из семьи коммунистов, но ее сестра выбрала мир бизнеса, а мать резко поменяла взгляды и переехала жить в деревню.

    Продолжительность: 01: 29: 15
    Качество видео: WEBRip
    Перевод: Многоголосый любительский -AlphaProject
    Субтитры: Отсутствуют
    Реклама: Присутствуют вставки видео голосовой и текстовой рекламы
    Видео: AVC/H.264, 1280x696, ~5300 Kbps
    Аудио: AAC, 2 ch, 384 Kbps
    Общее
    Уникальный идентификатор : 249000244461364629969410421063012485671 (0xBB53B3E3EFCD3B3096506A5C91D68A27)
    Полное имя : G: Tout.ce.qu_il.me.Reste.de.la.R_volution.2018.mkv
    Формат : Matroska
    Версия формата : Version 2
    Размер файла : 3, 55 Гбайт
    Продолжительность : 1 ч. 29 м.
    Режим общего битрейта : Переменный
    Общий поток : 5686 Кбит/сек
    Дата кодирования : UTC 2019-07-13 02: 48: 36
    Программа кодирования : mkvmerge v8.3.0 (\'Over the Horizon\') 64bit
    Библиотека кодирования : libebml v1.3.1 + libmatroska v1.4.2
    Видео
    Идентификатор : 2
    Формат : AVC
    Формат/Информация : Advanced Video Codec
    Профиль формата : High@L4.1
    Настройки формата : CABAC/4 Ref Frames
    Параметр CABAC формата : Да
    Параметр RefFrames формата : 4 кадра
    Идентификатор кодека : V_MPEG4/ISO/AVC
    Продолжительность : 1 ч. 29 м.
    Вид битрейта : Переменный
    Битрейт : 5302 Кбит/сек
    Номинальный битрейт : 6000 Кбит/сек
    Максимальный битрейт : 6000 Кбит/сек
    Ширина : 1280 пикселей
    Высота : 696 пикселей
    Соотношение сторон : 1, 85: 1
    Режим частоты кадров : Постоянный
    Частота кадров : 23, 976 (24000/1001) кадра/сек
    Стандарт вещания : Component
    Цветовое пространство : YUV
    Субдискретизация насыщенности : 4: 2: 0
    Битовая глубина : 8 бит
    Тип развёртки : Прогрессивная
    Бит/(Пиксели*Кадры) : 0.248
    Размер потока : 3, 31 Гбайт (93%)
    Библиотека кодирования : x264 core 148
    Настройки программы : cabac=1/ref=4/deblock=1: 0: 0/analyse=0x3: 0x3/me=dia/subme=1/psy=1/psy_rd=1.00: 0.00/mixed_ref=0/me_range=16/chroma_me=1/trellis=0/8x8dct=1/cqm=1/deadzone=21, 11/fast_pskip=1/chroma_qp_offset=0/threads=22/lookahead_threads=3/sliced_threads=0/slices=1/nr=0/decimate=1/interlaced=0/minigop=0/stitchable=1/constrained_intra=0/bframes=2/b_pyramid=0/b_adapt=0/b_bias=0/direct=1/weightb=1/open_gop=1/weightp=0/keyint=240/keyint_min=23/scenecut=40/intra_refresh=0/rc_lookahead=0/rc=cbr/mbtree=0/bitrate=6000/ratetol=1.0/qcomp=0.60/qpmin=1/qpmax=69/qpstep=4/vbv_maxrate=6000/vbv_bufsize=6000/nal_hrd=vbr/filler=0/ip_ratio=1.40/pb_ratio=1.30/aq=1: 1.00
    Default : Да
    Forced : Нет
    Цветовой диапазон : Limited
    Основные цвета : BT.709
    Характеристики трансфера : BT.709
    Коэффициенты матрицы : BT.709
    Аудио
    Идентификатор : 1
    Формат : AAC Main
    Формат/Информация : Advanced Audio Codec
    Идентификатор кодека : A_AAC-1
    Продолжительность : 1 ч. 29 м.
    Битрейт : 384 Кбит/сек
    Каналы : 2 канала
    ChannelLayout : L R
    Частота : 48, 0 КГц
    Частота кадров : 46, 875 кадров/сек (1024 SPF)
    Метод сжатия : С потерями
    Размер потока : 243 Мбайт (7%)
    Default : Да
    Forced : Нет

    Скриншоты для ознакомления



    Все одноименные релизы в Клубе
    Время раздачи: 24/7 (круглосуточно) (до появления первых 3-5 скачавших)

    Все, что осталось от революции/Tout ce quil me reste de la revolution (2018) WEBRip [H.264/720p-LQ] [MVO, AD]
    Рейтинг →
     (голосов: 1, оценка 3/5, голосовать можно 1 раз )

    Другие торренты по теме:

  • В теме. Сколько лет осталось еще Евросоюзу (2015) SATRip скачать через торрент бесплатно
  • Лев Щеглов | Яблоко доктора Щеглова, или Что осталось за кадром (2012) [MP3]
  • Сью Блэк | Всё, что осталось. Записки патологоанатома и судебного антрополога (2019) [PDF]


    • Комментарии (0):

      Информация

      Информация

        Посетители, находящиеся в группе Гости, не могут оставлять комментарии в данной новости.

        ↓ Меню




        ↓ Опрос

        Вы добавили сайт в закладки?
        Да
        Нет


        Популярное