.
Авторизация | Регистрация

bitok.xyz

» » Алита: Боевой ангел / Alita: Battle Angel (2019) BDRip [H.264 / 1080p-LQ] [hand made 16:9] торрент скачать бесплатно


    Алита: Боевой ангел / Alita: Battle Angel (2019) BDRip [H.264 / 1080p-LQ] [hand made 16:9] торрент скачать бесплатно

    Дата: 16-07-2019, 05:00 | .torrent скачали: 1

    Алита: Боевой ангел / Alita: Battle Angel (2019) BDRip [H.264 / 1080p-LQ] [hand made 16:9]Производство: США/Twentieth Century Fox, Lightstorm Entertainment
    Жанр: Фантастика, боевик, триллер, приключения
    Режиссер: Роберт Родригес

    Актеры
    Роза Салазар, Кристоф Вальц, Дженнифер Коннелли, Махершала Али, Эд Скрейн, Джеки Эрл Хейли, Кин Джонсон, Хорхе Лендеборг мл., Лана Кондор, Идара Виктор

    Описание

    Действие фильма происходит через 300 лет после Великой войны в XXVI веке. Доктор Идо находит останки женщины-киборга. После починки киборг ничего не помнит, но обнаруживает, что в состоянии пользоваться боевыми приемами киборгов. Начинаются поиски утерянных воспоминаний.

    Возраст: 16+ (зрителям, достигшим 16 лет)
    Рейтинг MPAA: PG-13 (детям до 13 лет просмотр нежелателен)
    Дата мировой премьеры: 5 февраля 2019
    Дата российской премьеры: 14 февраля 2019
    Продолжительность: 02: 01: 58
    Качество видео: BDRip
    Перевод: Дублированный (BluRay EUR)
    Субтитры: русские (форс., полные), английские (полные)
    Видео: AVC/H.264, 1920x1080, ~7 Mbps
    Аудио #1: DTS, 6 ch, 768 Kbps - русский
    Аудио #2: DTS ES, 6 ch, 1509 kbps - английский

    x264 info: frame I: 1507 Avg QP: 18.67 size: 180505
    x264 info: frame P: 49012 Avg QP: 20.32 size: 64884
    x264 info: frame B: 124906 Avg QP: 21.63 size: 23582
    Unique ID : 243740759799616188392532582654098225669 (0xB75EC346A2F2E6D8A1555E0135AF3A05)
    Complete name : D: TempNNMALITA.1080p.FS.mkv
    Format : Matroska
    Format version : Version 4/Version 2
    File size : 7.90 GiB
    Duration : 2h 1mn
    Overall bit rate : 9 276 Kbps
    Movie name : ALITA__BATTLE_ANGEL.Title800
    Encoded date : UTC 2019-07-15 11: 34: 28
    Writing application : mkvmerge v9.8.0 (\'Kuglblids\') 64bit
    Writing library : libebml v1.3.4 + libmatroska v1.4.5
    Video
    ID : 1
    Format : AVC
    Format/Info : Advanced Video Codec
    Format profile : High@L4.1
    Format settings, CABAC : Yes
    Format settings, ReFrames : 4 frames
    Codec ID : V_MPEG4/ISO/AVC
    Duration : 2h 1mn
    Bit rate : 7 000 Kbps
    Width : 1 920 pixels
    Height : 1 080 pixels
    Display aspect ratio : 16: 9
    Frame rate mode : Constant
    Frame rate : 23.976 fps
    Color space : YUV
    Chroma subsampling : 4: 2: 0
    Bit depth : 8 bits
    Scan type : Progressive
    Bits/(Pixel*Frame) : 0.141
    Stream size : 5.80 GiB (73%)
    Writing library : x264 core 148 r2665M a01e339
    Encoding settings : cabac=1/ref=4/deblock=1: -3: -2/analyse=0x3: 0x113/me=umh/subme=11/psy=1/psy_rd=1.05: 0.10/mixed_ref=1/me_range=24/chroma_me=1/trellis=2/8x8dct=1/cqm=0/deadzone=21, 11/fast_pskip=0/chroma_qp_offset=-3/threads=5/lookahead_threads=1/sliced_threads=0/nr=0/decimate=0/interlaced=0/bluray_compat=0/constrained_intra=0/bframes=8/b_pyramid=2/b_adapt=2/b_bias=0/direct=1/weightb=1/open_gop=0/weightp=2/keyint=230/keyint_min=23/scenecut=40/intra_refresh=0/rc_lookahead=40/rc=2pass/mbtree=1/bitrate=7000/ratetol=1.0/qcomp=0.70/qpmin=3/qpmax=69/qpstep=4/cplxblur=20.0/qblur=0.5/ip_ratio=1.40/aq=2: 1.00
    Default : Yes
    Forced : No
    Audio #1
    ID : 2
    Format : DTS
    Format/Info : Digital Theater Systems
    Mode : 16
    Format settings, Endianness : Big
    Codec ID : A_DTS
    Duration : 2h 1mn
    Bit rate mode : Constant
    Bit rate : 768 Kbps
    Channel(s) : 6 channels
    Channel positions : Front: L C R, Side: L R, LFE
    Sampling rate : 48.0 KHz
    Bit depth : 24 bits
    Compression mode : Lossy
    Stream size : 670 MiB (8%)
    Language : Russian
    Default : Yes
    Forced : No
    Audio #2
    ID : 3
    Format : DTS
    Format/Info : Digital Theater Systems
    Format profile : ES
    Mode : 16
    Format settings, Endianness : Big
    Codec ID : A_DTS
    Duration : 2h 1mn
    Bit rate mode : Constant
    Bit rate : 1 509 Kbps
    Channel(s) : 6 channels
    Channel positions : Front: L C R, Side: L R, LFE
    Sampling rate : 48.0 KHz
    Bit depth : 24 bits
    Compression mode : Lossy
    Stream size : 1.29 GiB (16%)
    Language : English
    Default : No
    Forced : No
    Text #1
    ID : 4
    Format : UTF-8
    Codec ID : S_TEXT/UTF8
    Codec ID/Info : UTF-8 Plain Text
    Title : Forced
    Language : Russian
    Default : Yes
    Forced : No
    Text #2
    ID : 5
    Format : UTF-8
    Codec ID : S_TEXT/UTF8
    Codec ID/Info : UTF-8 Plain Text
    Title : Full (Focs)
    Language : Russian
    Default : No
    Forced : No
    Text #3
    ID : 6
    Format : UTF-8
    Codec ID : S_TEXT/UTF8
    Codec ID/Info : UTF-8 Plain Text
    Title : SDH
    Language : English
    Default : No
    Forced : No

    Скриншоты для ознакомления



    Все одноименные релизы в Клубе
    Время раздачи: 24/7 (до появления первых 3-5 скачавших)


    Алита: Боевой ангел/Alita: Battle Angel (2019) BDRip [H.264/1080p-LQ] [hand made 16:9]
    Рейтинг →
     (голосов: 1, оценка 3/5, голосовать можно 1 раз )

    Другие торренты по теме:

  • Алита: Боевой ангел / Alita: Battle Angel (2019) CamRip [MVO] [AD]
  • Пэт Кэдиган | Алита: Боевой ангел. Айрон сити (2019) [MP3]
  • Пэт Кэдиган | Алита. Боевой ангел. Айрон Сити (2019) [FB2]
  • Пэт Кэдиган | Алита. Боевой ангел (2019) [FB2]
  • Пэт Кэдиган | Алита. Боевой ангел (2019) [MP3]
  • Алита: Боевой ангел / Alita: Battle Angel (2019) WEBRip [MVO] [AD]
  • Алита: Боевой ангел / Alita: Battle Angel (2019) WEBRip [H.264 / 1080p-LQ] [MVO] [AD]
  • Алита: Боевой ангел / Alita: Battle Angel (2019) TS [H.264] [MP4|1280x604] [AD]


    • Комментарии (0):

      Информация

      Информация

        Посетители, находящиеся в группе Гости, не могут оставлять комментарии в данной новости.

        ↓ Меню




        ↓ Опрос

        Вы добавили сайт в закладки?
        Да
        Нет


        Популярное