.
Авторизация | Регистрация

bitok.xyz

» » Хеллбой / Hellboy (2019) BDRip [H.264 / 1080p-LQ] [hand made 16:9] [PR] торрент скачать бесплатно


    Хеллбой / Hellboy (2019) BDRip [H.264 / 1080p-LQ] [hand made 16:9] [PR] торрент скачать бесплатно

    Дата: 24-07-2019, 05:00 | .torrent скачали: 0

    Хеллбой / Hellboy (2019) BDRip [H.264 / 1080p-LQ] [hand made 16:9] [PR]Производство: США, Великобритания, Болгария/Summit Entertainment
    Жанр: Фэнтези, Боевик, Приключения
    Режиссер: Нил Маршалл

    Актеры
    Дэвид Харбор, Иэн МакШейн, Милла Йовович, Саша Лэйн, Дэниэл Дэ Ким, Алистэр Петри, Софи Оконедо, Томас Хейден Чёрч, Марк Стэнли, Брин Глисон, Надя Керанова, Мария Тепавичарова

    Описание

    Близится час битвы Хеллбоя с Кровавой королевой, жаждущей отомстить всему человечеству за века в заточении. Оказавшись в эпицентре столкновения миров людей и монстров, Хеллбою придется пройти через ад, чтобы предотвратить надвигающийся апокалипсис.

    Возраст: 18+ (зрителям, достигшим 18 лет. запрещено для детей)
    Рейтинг MPAA: R (лицам до 17 лет обязательно присутствие взрослого)
    Дата мировой премьеры: 9 апреля 2019
    Дата российской премьеры: 11 апреля 2019, MEGOGO Distribution
    Продолжительность: 02: 01: 02
    Качество видео: BDRip
    Перевод: Дублированный (iTunes)
    Субтитры: Русские (форс., полные), английские (полные)
    Видео: AVC/H.264, 1920x1080, ~8 Mbps
    Аудио #1: AC3, 6 ch, 384 Kbps - Русский
    Аудио #2: AC3, 6 ch, 448 Kbps - Английский

    x264 info: frame I: 1666 Avg QP: 15.50 size: 211186
    x264 info: frame P: 45581 Avg QP: 18.13 size: 81428
    x264 info: frame B: 126874 Avg QP: 19.44 size: 38325
    Unique ID : 183569184999534501567738593869780853650 (0x8A1A239730CF021EA786B2BDB52DA392)
    Complete name : D: TempNNMХеллбой.2019.FS.mkv
    Format : Matroska
    Format version : Version 4/Version 2
    File size : 7.46 GiB
    Duration : 2h 1mn
    Overall bit rate : 8 829 Kbps
    Movie name : Хеллбой_Hellboy (2019)
    Encoded date : UTC 2019-07-23 13: 14: 29
    Writing application : mkvmerge v9.8.0 (\'Kuglblids\') 64bit
    Writing library : libebml v1.3.4 + libmatroska v1.4.5
    Video
    ID : 1
    Format : AVC
    Format/Info : Advanced Video Codec
    Format profile : High@L4.1
    Format settings, CABAC : Yes
    Format settings, ReFrames : 4 frames
    Codec ID : V_MPEG4/ISO/AVC
    Duration : 2h 1mn
    Bit rate : 8 000 Kbps
    Width : 1 920 pixels
    Height : 1 080 pixels
    Display aspect ratio : 16: 9
    Frame rate mode : Constant
    Frame rate : 23.976 fps
    Color space : YUV
    Chroma subsampling : 4: 2: 0
    Bit depth : 8 bits
    Scan type : Progressive
    Bits/(Pixel*Frame) : 0.161
    Stream size : 6.61 GiB (89%)
    Writing library : x264 core 148 r2665M a01e339
    Encoding settings : cabac=1/ref=4/deblock=1: -3: -3/analyse=0x3: 0x113/me=umh/subme=9/psy=1/psy_rd=1.05: 0.10/mixed_ref=1/me_range=24/chroma_me=1/trellis=2/8x8dct=1/cqm=0/deadzone=21, 11/fast_pskip=0/chroma_qp_offset=-3/threads=5/lookahead_threads=1/sliced_threads=0/nr=0/decimate=0/interlaced=0/bluray_compat=0/constrained_intra=0/bframes=6/b_pyramid=2/b_adapt=2/b_bias=0/direct=1/weightb=1/open_gop=0/weightp=2/keyint=230/keyint_min=23/scenecut=40/intra_refresh=0/rc_lookahead=40/rc=2pass/mbtree=1/bitrate=8000/ratetol=1.0/qcomp=0.70/qpmin=3/qpmax=69/qpstep=4/cplxblur=20.0/qblur=0.5/ip_ratio=1.40/aq=2: 1.00
    Default : Yes
    Forced : No
    Audio #1
    ID : 2
    Format : AC-3
    Format/Info : Audio Coding 3
    Mode extension : CM (complete main)
    Format settings, Endianness : Big
    Codec ID : A_AC3
    Duration : 2h 1mn
    Bit rate mode : Constant
    Bit rate : 384 Kbps
    Channel(s) : 6 channels
    Channel positions : Front: L C R, Side: L R, LFE
    Sampling rate : 48.0 KHz
    Bit depth : 16 bits
    Compression mode : Lossy
    Stream size : 332 MiB (4%)
    Language : Russian
    Default : Yes
    Forced : No
    Audio #2
    ID : 3
    Format : AC-3
    Format/Info : Audio Coding 3
    Mode extension : CM (complete main)
    Format settings, Endianness : Big
    Codec ID : A_AC3
    Duration : 2h 1mn
    Bit rate mode : Constant
    Bit rate : 448 Kbps
    Channel(s) : 6 channels
    Channel positions : Front: L C R, Side: L R, LFE
    Sampling rate : 48.0 KHz
    Bit depth : 16 bits
    Compression mode : Lossy
    Stream size : 388 MiB (5%)
    Language : English
    Default : No
    Forced : No
    Text #1
    ID : 4
    Format : UTF-8
    Codec ID : S_TEXT/UTF8
    Codec ID/Info : UTF-8 Plain Text
    Title : Forced
    Language : Russian
    Default : Yes
    Forced : No
    Text #2
    ID : 5
    Format : UTF-8
    Codec ID : S_TEXT/UTF8
    Codec ID/Info : UTF-8 Plain Text
    Title : Full FOCS (no cens.)
    Language : Russian
    Default : No
    Forced : No
    Text #3
    ID : 6
    Format : UTF-8
    Codec ID : S_TEXT/UTF8
    Codec ID/Info : UTF-8 Plain Text
    Title : Full
    Language : English
    Default : No
    Forced : No

    Скриншоты для ознакомления



    Все одноименные релизы в Клубе
    Время раздачи: 24/7 (до появления первых 3-5 скачавших)


    Хеллбой/Hellboy (2019) BDRip [H.264/1080p-LQ] [hand made 16:9] [PR]
    Рейтинг →
     (голосов: 1, оценка 4/5, голосовать можно 1 раз )

    Другие торренты по теме:

  • Хеллбой / Hellboy (2004 / 2008) BDRip [720p] [Дилогия] скачать через торрент бесплатно
  • Хеллбой / Hellboy (2019) CamRip [H.264] [MP4|1280x720]
  • Хеллбой / Hellboy (2019) CamRip [H.264 / 720p-LQ] [AD]
  • Хеллбой / Hellboy (2019) CamRip [AD]
  • Хеллбой / Hellboy (2019) WEBRip [H.264] [UKR, EN / EN, KOR Sub] [Line]
  • Хеллбой / Hellboy (2019) WEBRip [UKR / KOR Sub] [Line]
  • Хеллбой / Hellboy (2019) WEBRip [H.264 / 1080p-LQ] [UKR, EN / EN, KOR Sub] [Line]
  • Хеллбой / Hellboy (2019) WEBRip [H.264] [MVO]


    • Комментарии (0):

      Информация

      Информация

        Посетители, находящиеся в группе Гости, не могут оставлять комментарии в данной новости.

        ↓ Меню




        ↓ Опрос

        Вы добавили сайт в закладки?
        Да
        Нет


        Популярное