.
Авторизация | Регистрация

bitok.xyz

» » Покемон. Детектив Пикачу / Pokemon Detective Pikachu (2019) BDRip 3D [H.264 / 1080p] [вертикальная анаморфная стереопара] [hand made 16:9] торрент скачать бесплатно


    Покемон. Детектив Пикачу / Pokemon Detective Pikachu (2019) BDRip 3D [H.264 / 1080p] [вертикальная анаморфная стереопара] [hand made 16:9] торрент скачать бесплатно

    Дата: 9-08-2019, 05:00 | .torrent скачали: 1

    Покемон. Детектив Пикачу / Pokemon Detective Pikachu (2019) BDRip 3D [H.264 / 1080p] [вертикальная анаморфная стереопара] [hand made 16:9]Производство: США, Япония/Warner Bros., Legendary Entertainment
    Жанр: Фантастика, Фэнтези, Детектив, Приключения, Семейный
    Режиссер: Роб Леттерман

    Актеры
    Райан Рейнольдс, Джастис Смит, Кэтрин Ньютон, Билл Найи, Кэн Ватанабэ, Крис Гир, Сьюки Уотерхаус, Джозетт Саймон, Алехандро Де Меса, Рита Ора

    Описание

    История начинается с таинственного исчезновения частного детектива экстра- класса Гарри Гудмана, расследовать которое предстоит его 21-летнему сыну Тиму. Помощь в расследовании ему окажет бывший партнер отца, детектив Пикачу — уморительный, остроумный и обаятельный сыщик, который является загадкой даже для себя самого. Обнаружив, что они каким-то фантастическим образом способны общаться друг с другом, Тим и Пикачу объединяют усилия в захватывающем расследовании этой запутанной истории. В погоне за уликами по неоновым улицам Райм Сити — современного разросшегося мегаполиса, где люди и покемоны живут бок о бок в гиперреалистичном мире игрового экшна, — они встречают самых разнообразных покемонов и раскрывают ужасный заговор, который способен разрушить это мирное сосуществование и стать угрозой для всей вселенной покемонов.

    Возраст: 12+ (зрителям, достигшим 12 лет)
    Рейтинг MPAA: PG (рекомендуется присутствие родителей)
    Дата мировой премьеры: 3 мая 2019
    Дата российской премьеры: 16 мая 2019, Каро-Премьер
    Продолжительность: 01: 44: 29
    Качество видео: BDRip 3D
    Перевод: Дублированный
    Субтитры: Русские (форс., полные)
    Видео: AVC/H.264, 1920х1080, ~10 Mbps
    Аудио #1: AC3, 6 ch, 448 Kbps - Русский
    Аудио #2: AC3, 6 ch, 640 Kbps - Английский

    x264 info: frame I: 1267 Avg QP: 18.51 size: 198175
    x264 info: frame P: 39075 Avg QP: 19.62 size: 87439
    x264 info: frame B: 109946 Avg QP: 20.56 size: 37873
    Unique ID : 254332426514212573765140721476937938836 (0xBF56A4C3501C41028520D5E8331B7794)
    Complete name : D: TempNNMПокемон Детектив Пикачу.2019.FS.mkv
    Format : Matroska
    Format version : Version 4/Version 2
    File size : 8.09 GiB
    Duration : 1h 44mn
    Overall bit rate : 11.1 Mbps
    Movie name : POKГ©MON_DETECTIVE_PIKACHU.Title800
    Encoded date : UTC 2019-08-08 12: 07: 52
    Writing application : mkvmerge v9.8.0 (\'Kuglblids\') 64bit
    Video
    ID : 1
    Format : AVC
    Format/Info : Advanced Video Codec
    Format profile : High@L4.1
    Format settings, CABAC : Yes
    Format settings, ReFrames : 4 frames
    Codec ID : V_MPEG4/ISO/AVC
    Duration : 1h 44mn
    Bit rate : 10 000 Kbps
    Width : 1 920 pixels
    Height : 1 080 pixels
    Display aspect ratio : 16: 9
    Frame rate mode : Constant
    Frame rate : 23.976 fps
    Color space : YUV
    Chroma subsampling : 4: 2: 0
    Bit depth : 8 bits
    Scan type : Progressive
    Bits/(Pixel*Frame) : 0.201
    Stream size : 7.13 GiB (88%)
    Writing library : x264 core 148 r2665M a01e339
    Encoding settings : cabac=1/ref=4/deblock=1: -3: -3/analyse=0x3: 0x113/me=umh/subme=10/psy=1/psy_rd=1.05: 0.10/mixed_ref=1/me_range=24/chroma_me=1/trellis=2/8x8dct=1/cqm=0/deadzone=21, 11/fast_pskip=0/chroma_qp_offset=-3/threads=5/lookahead_threads=1/sliced_threads=0/nr=0/decimate=0/interlaced=0/bluray_compat=0/constrained_intra=0/bframes=6/b_pyramid=2/b_adapt=2/b_bias=0/direct=1/weightb=1/open_gop=0/weightp=2/keyint=230/keyint_min=23/scenecut=40/intra_refresh=0/rc_lookahead=40/rc=2pass/mbtree=1/bitrate=10000/ratetol=1.0/qcomp=0.70/qpmin=3/qpmax=69/qpstep=4/cplxblur=20.0/qblur=0.5/ip_ratio=1.40/aq=2: 1.00
    Default : Yes
    Forced : No
    Audio #1
    ID : 2
    Format : AC-3
    Format/Info : Audio Coding 3
    Mode extension : CM (complete main)
    Format settings, Endianness : Big
    Codec ID : A_AC3
    Duration : 1h 44mn
    Bit rate mode : Constant
    Bit rate : 448 Kbps
    Channel(s) : 6 channels
    Channel positions : Front: L C R, Side: L R, LFE
    Sampling rate : 48.0 KHz
    Bit depth : 16 bits
    Compression mode : Lossy
    Stream size : 335 MiB (4%)
    Language : Russian
    Default : Yes
    Forced : No
    Audio #2
    ID : 3
    Format : AC-3
    Format/Info : Audio Coding 3
    Mode extension : CM (complete main)
    Format settings, Endianness : Big
    Codec ID : A_AC3
    Duration : 1h 44mn
    Bit rate mode : Constant
    Bit rate : 640 Kbps
    Channel(s) : 6 channels
    Channel positions : Front: L C R, Side: L R, LFE
    Sampling rate : 48.0 KHz
    Bit depth : 16 bits
    Compression mode : Lossy
    Delay relative to video : 27ms
    Stream size : 478 MiB (6%)
    Language : English
    Default : No
    Forced : No
    Text #1
    ID : 4
    Format : UTF-8
    Codec ID : S_TEXT/UTF8
    Codec ID/Info : UTF-8 Plain Text
    Title : Forced
    Language : Russian
    Default : Yes
    Forced : No
    Text #2
    ID : 5
    Format : UTF-8
    Codec ID : S_TEXT/UTF8
    Codec ID/Info : UTF-8 Plain Text
    Title : Full
    Language : Russian
    Default : No
    Forced : No

    Скриншоты для ознакомления



    Все одноименные релизы в Клубе
    Время раздачи: 24/7 (до появления первых 3-5 скачавших)


    Покемон. Детектив Пикачу/Pokemon Detective Pikachu (2019) BDRip 3D [H.264/1080p] [вертикальная анаморфная стереопара] [hand made 16:9]
    Рейтинг →
     (голосов: 1, оценка 5/5, голосовать можно 1 раз )

    Другие торренты по теме:

  • Покемон. Детектив Пикачу / Pokemon Detective Pikachu (2019) CamRip [MVO] [AD]
  • Покемон. Детектив Пикачу / Pokemon Detective Pikachu (2019) WEB-DLRip [MVO] [AD]
  • Покемон. Детектив Пикачу / Pokemon Detective Pikachu (2019) WEB-DLRip [H.264 / 1080p-LQ] [MVO] [AD]
  • Покемон. Детектив Пикачу / Pokemon Detective Pikachu (2019) HDRip [MVO]
  • Покемон. Детектив Пикачу / Pokemon Detective Pikachu (2019) HDRip [H.264 / 1080p] [MVO] [PR]
  • Покемон. Детектив Пикачу / Pokemon Detective Pikachu (2019) WEB-DLRip [H.264 / 1080p-LQ] [Line, AD]
  • Покемон. Детектив Пикачу / Pokemon Detective Pikachu (2019) BDRemux [H.264 / 1080p] [MVO] [PR]
  • Покемон. Детектив Пикачу / Pokemon Detective Pikachu (2019) BDRip [H.264 / 720p-LQ]


    • Комментарии (0):

      Информация

      Информация

        Посетители, находящиеся в группе Гости, не могут оставлять комментарии в данной новости.

        ↓ Меню




        ↓ Опрос

        Вы добавили сайт в закладки?
        Да
        Нет


        Популярное