.
Авторизация | Регистрация
bitok.xyz
» » Скуби-Ду 2: Монстры на свободе / Scooby Doo 2: Monsters Unleashed (2004) HDRip [H.264] [Hand Made Extended Cut] торрент скачать бесплатно


    Скуби-Ду 2: Монстры на свободе / Scooby Doo 2: Monsters Unleashed (2004) HDRip [H.264] [Hand Made Extended Cut] торрент скачать бесплатно

    Дата: 23-08-2019, 05:00 | .torrent скачали: 1

    Скуби-Ду 2: Монстры на свободе / Scooby Doo 2: Monsters Unleashed (2004) HDRip [H.264] [Hand Made Extended Cut]Производство: США, Канада/Mosaic Media Group, Scooby Two Films, Warner Bros. Pictures
    Жанр: фантастика, фэнтези, комедия, детектив, приключения, семейный
    Режиссер: Раджа Госнелл

    Актеры
    Фредди Принц мл., Сара Мишель Геллар, Мэттью Лиллард, Линда Карделлини, Сет Грин, Питер Бойл, Тим Блейк Нельсон, Алисия Сильверстоун, Нил Фаннинг, Пэт О’Брайэн

    Описание

    На этот раз Скуби-Ду и его приятелям предстоит сразиться с замаскированным злодеем, который замышляет захватить город Кулсвиль, наводнив его привидениями.
    Эти существа, появляющиеся на свет благодаря специальной машине по генерированию монстров, должны устроить в городке настоящий переполох. Но благодаря усилиям Тайной корпорации Кулсвиль будет непременно спасен!

    Возраст: 12+ (зрителям, достигшим 12 лет)
    Рейтинг MPAA: PG (рекомендуется присутствие родителей)
    Релиз от: MAG3131
    Продолжительность: 01: 37: 53
    Качество видео: HDRip
    Перевод: Дублированный с вставками любительского псевдо-дубляжа \'\'Dars Group\'\'
    Субтитры: Отсутствуют
    Видео: AVC/H.264, 720x408, ~1804 kbps
    Аудио: AC3, 2 ch, 192 kbpsДанная версия фильма на Blu-Ray не выходила как расширенная версия. Поэтому это Неофициальная (фанатная) версия. Добавленные сцены отличаются по качеству видео от самого фильма.
    Общее
    Уникальный идентификатор : 103910223557935569970093203575408667675 (0x4E2C619048373109AF91FA22158FAC1B)
    Полное имя : Scooby.Doo.2.Monsters.Unleashed.Hdrip.HMEC.mkv
    Формат : Matroska
    Версия формата : Version 2
    Размер файла : 1, 37 Гбайт
    Продолжительность : 1 ч. 37 м.
    Общий поток : 1997 Кбит/сек
    Дата кодирования : UTC 2019-08-22 21: 49: 38
    Программа кодирования : mkvmerge v36.0.0 (\'Is That Jazz?\') 64-bit
    Библиотека кодирования : libebml v1.3.9 + libmatroska v1.5.2
    Attachments : Лог кодирования.log
    Видео
    Идентификатор : 1
    Формат : AVC
    Формат/Информация : Advanced Video Codec
    Профиль формата : High@L4.1
    Настройки формата : CABAC/12 Ref Frames
    Параметр CABAC формата : Да
    Параметр RefFrames формата : 12 кадров
    Идентификатор кодека : V_MPEG4/ISO/AVC
    Продолжительность : 1 ч. 37 м.
    Битрейт : 1804 Кбит/сек
    Ширина : 720 пикселей
    Высота : 408 пикселей
    Соотношение сторон : 16: 9
    Режим частоты кадров : Постоянный
    Частота кадров : 25, 000 кадров/сек
    Цветовое пространство : YUV
    Субдискретизация насыщенности : 4: 2: 0
    Битовая глубина : 8 бит
    Тип развёртки : Прогрессивная
    Бит/(Пиксели*Кадры) : 0.246
    Размер потока : 1, 21 Гбайт (88%)
    Заголовок : Скуби-Ду 2: Монстры на свободе (Расширенная версия) (Scooby Doo 2: Monsters Unleashed) (Extended Cut)
    Библиотека кодирования : x264 core 157 r2969 d4099dd
    Настройки программы : cabac=1/ref=12/deblock=1: -1: -1/analyse=0x3: 0x133/me=umh/subme=11/psy=1/psy_rd=1.00: 0.15/mixed_ref=1/me_range=64/chroma_me=1/trellis=2/8x8dct=1/cqm=0/deadzone=21, 11/fast_pskip=0/chroma_qp_offset=-3/threads=6/lookahead_threads=1/sliced_threads=0/nr=0/decimate=0/interlaced=0/bluray_compat=0/constrained_intra=0/bframes=16/b_pyramid=2/b_adapt=2/b_bias=0/direct=3/weightb=1/open_gop=0/weightp=2/keyint=250/keyint_min=25/scenecut=40/intra_refresh=0/rc_lookahead=60/rc=2pass/mbtree=0/bitrate=1804/ratetol=1.0/qcomp=0.60/qpmin=0/qpmax=69/qpstep=4/cplxblur=20.0/qblur=0.5/vbv_maxrate=50000/vbv_bufsize=62500/nal_hrd=none/filler=0/ip_ratio=1.40/pb_ratio=1.30/aq=1: 1.00
    Язык : English
    Default : Да
    Forced : Нет
    Аудио
    Идентификатор : 2
    Формат : AC-3
    Формат/Информация : Audio Coding 3
    Коммерческое название : Dolby Digital
    Идентификатор кодека : A_AC3
    Продолжительность : 1 ч. 37 м.
    Вид битрейта : Постоянный
    Битрейт : 192 Кбит/сек
    Каналы : 2 канала
    ChannelLayout : L R
    Частота : 48, 0 КГц
    Частота кадров : 31, 250 кадров/сек (1536 SPF)
    Битовая глубина : 16 бит
    Метод сжатия : С потерями
    Размер потока : 134 Мбайт (10%)
    Заголовок : Дублированный \'\'Blu-ray CEE\'\' с вставками любительского псевдо-дубляжа \'\'Dars Group\'\' (AC-3, Постоянный, 192 Кбит/сек, 2 канала, 48, 0 КГц, 16 бит)
    Язык : Russian
    ServiceKind/String : Complete Main
    Default : Да
    Forced : Нет

    Скриншоты для ознакомления



    Все одноименные релизы в Клубе
    Время раздачи: 24/7 до первых 10 скачавших, потом ухожу с раздачи

    Скуби-Ду 2: Монстры на свободе/Scooby Doo 2: Monsters Unleashed (2004) HDRip [H.264] [Hand Made Extended Cut]
    Рейтинг →
     (голосов: 1, оценка 3/5, голосовать можно 1 раз )

    Другие торренты по теме:

  • Скуби-Ду: Франкен-монстр / Scooby-Doo! Frankencreepy (2014) BDRemux (1080p) скачать через торрент бесплатно
  • Скуби-Ду и KISS: Тайна рок-н-ролла / Scooby-Doo! And Kiss: Rock and Roll Mystery (2015) BDRip [H.264 / 720p] скачать через торрент бесплатно
  • Скуби-Ду и KISS: Тайна рок-н-ролла / Scooby-Doo! And Kiss: Rock and Roll Mystery (2015) HDRip скачать через торрент бесплатно
  • Скуби-Ду и KISS: Тайна рок-н-ролла / Scooby-Doo! And Kiss: Rock and Roll Mystery (2015) BDRip [H.264 / 1080p] скачать через торрент бесплатно
  • Скуби-Ду и KISS: Тайна рок-н-ролла / Scooby-Doo! And Kiss: Rock and Roll Mystery (2015) BDRemux [H.264 / 1080p] скачать через торрент бесплатно
  • Скуби-Ду и KISS: Тайна рок-н-ролла / Scooby-Doo! And Kiss: Rock and Roll Mystery (2015) BDRip [576p] iPad скачать через торрент бесплатно
  • Скуби-Ду и KISS: Тайна рок-н-ролла / Scooby-Doo! And Kiss: Rock and Roll Mystery (2015) BDRip [720p] ATV скачать через торрент бесплатно
  • Скуби-Ду и KISS: Тайна рок-н-ролла / Scooby-Doo! And Kiss: Rock and Roll Mystery (2015) BDRip [1080p] ATV скачать через торрент бесплатно


    • Комментарии (0):

      Информация

      Информация

        Посетители, находящиеся в группе Гости, не могут оставлять комментарии в данной новости.

        ↓ Меню




        ↓ Опрос

        Вы добавили сайт в закладки?
        Да
        Нет


        Популярное