.
Авторизация | Регистрация

bitok.xyz

» » Люди в черном: Интернэшнл / Men in Black International (2019) BDRip [H.264 / 1080p-LQ] [hand made 16:9] торрент скачать бесплатно


    Люди в черном: Интернэшнл / Men in Black International (2019) BDRip [H.264 / 1080p-LQ] [hand made 16:9] торрент скачать бесплатно

    Дата: 25-08-2019, 05:00 | .torrent скачали: 5

    Люди в черном: Интернэшнл / Men in Black International (2019) BDRip [H.264 / 1080p-LQ] [hand made 16:9]Производство: Великобритания, США | Amblin Entertainment, Columbia Pictures
    Жанр: Фантастика, боевик, комедия, приключения
    Режиссер: Ф. Гэри Грей
    Продюсер: Лори МакДональд, Уолтер Ф. Паркс, Давид Бобэр

    Актеры
    Крис Хемсворт, Тесса Томпсон, Кумэйл Нанджиани, Ребекка Фергюсон, Рейф Сполл, Эмма Томпсон, Лиам Нисон, Лоран Буржуа, Ларри Буржуа, Кайван Новак

    Описание

    Люди в черном, тайная организация на страже покоя и безопасности Земли, уже не раз защищали нас от нападения отбросов Вселенной. На этот раз самая большая опасность для мирового сообщества, которой агентам предстоит противостоять - шпион в их рядах.

    Возраст: 12+ (зрителям, достигшим 12 лет)
    Рейтинг MPAA: PG-13 (детям до 13 лет просмотр нежелателен)
    Дата мировой премьеры: 11 июня 2019
    Дата российской премьеры: 12 июня 2019, WDSSPR
    Продолжительность: 01: 54: 50
    Качество видео: BDRip
    Перевод: Дублированный (iTunes)
    Субтитры: Русские (форс., полные), английские (полные)
    Видео: AVC/H.264, 1920x1080, ~5 Mbps
    Аудио #1: AC3, 6 ch, 384 Kbps - Русский
    Аудио #2: AC3, 6 ch, 640 Kbps - Английский
    x264 info: frame I: 1721 Avg QP: 17.45 size: 148134
    x264 info: frame P: 44613 Avg QP: 18.32 size: 51511
    x264 info: frame B: 118858 Avg QP: 20.28 size: 14745
    Unique ID : 128341652491860228271298610979917701346 (0x608DB40298BCC11A3D6F2D89F562A0E2)
    Complete name : D: TempNNMMen.in.Black.International.2019.FS.mkv
    Format : Matroska
    Format version : Version 4/Version 2
    File size : 4.84 GiB
    Duration : 1h 54mn
    Overall bit rate : 6 029 Kbps
    Movie name : Men in Black: International 2019
    Writing library : Lavf57.71.100
    Video
    ID : 1
    Format : AVC
    Format/Info : Advanced Video Codec
    Format profile : High@L4.1
    Format settings, CABAC : Yes
    Format settings, ReFrames : 4 frames
    Codec ID : V_MPEG4/ISO/AVC
    Duration : 1h 54mn
    Bit rate : 5 000 Kbps
    Width : 1 920 pixels
    Height : 1 080 pixels
    Display aspect ratio : 16: 9
    Frame rate mode : Constant
    Frame rate : 23.976 fps
    Color space : YUV
    Chroma subsampling : 4: 2: 0
    Bit depth : 8 bits
    Scan type : Progressive
    Bits/(Pixel*Frame) : 0.101
    Stream size : 3.92 GiB (81%)
    Writing library : x264 core 157 r2935 545de2f
    Encoding settings : cabac=1/ref=4/deblock=1: -3: -3/analyse=0x3: 0x113/me=umh/subme=9/psy=1/psy_rd=1.05: 0.10/mixed_ref=1/me_range=24/chroma_me=1/trellis=2/8x8dct=1/cqm=0/deadzone=21, 11/fast_pskip=0/chroma_qp_offset=-3/threads=5/lookahead_threads=1/sliced_threads=0/nr=0/decimate=0/interlaced=0/bluray_compat=0/constrained_intra=0/bframes=6/b_pyramid=2/b_adapt=2/b_bias=0/direct=1/weightb=1/open_gop=0/weightp=2/keyint=240/keyint_min=24/scenecut=40/intra_refresh=0/rc=2pass/mbtree=0/bitrate=5000/ratetol=1.0/qcomp=0.70/qpmin=3/qpmax=69/qpstep=4/cplxblur=20.0/qblur=0.5/ip_ratio=1.40/pb_ratio=1.30/aq=2: 1.00
    Language : English
    Default : Yes
    Forced : No
    Audio #1
    ID : 2
    Format : AC-3
    Format/Info : Audio Coding 3
    Mode extension : CM (complete main)
    Format settings, Endianness : Big
    Codec ID : A_AC3
    Duration : 1h 54mn
    Bit rate mode : Constant
    Bit rate : 384 Kbps
    Channel(s) : 6 channels
    Channel positions : Front: L C R, Side: L R, LFE
    Sampling rate : 48.0 KHz
    Bit depth : 16 bits
    Compression mode : Lossy
    Stream size : 315 MiB (6%)
    Language : Russian
    Default : Yes
    Forced : Yes
    Audio #2
    ID : 3
    Format : AC-3
    Format/Info : Audio Coding 3
    Mode extension : CM (complete main)
    Format settings, Endianness : Big
    Codec ID : A_AC3
    Duration : 1h 54mn
    Bit rate mode : Constant
    Bit rate : 640 Kbps
    Channel(s) : 6 channels
    Channel positions : Front: L C R, Side: L R, LFE
    Sampling rate : 48.0 KHz
    Bit depth : 16 bits
    Compression mode : Lossy
    Stream size : 526 MiB (11%)
    Language : English
    Default : Yes
    Forced : No
    Text #1
    ID : 4
    Format : UTF-8
    Codec ID : S_TEXT/UTF8
    Codec ID/Info : UTF-8 Plain Text
    Title : Forced
    Language : Russian
    Default : Yes
    Forced : Yes
    Text #2
    ID : 5
    Format : UTF-8
    Codec ID : S_TEXT/UTF8
    Codec ID/Info : UTF-8 Plain Text
    Title : Full
    Language : Russian
    Default : Yes
    Forced : No
    Text #3
    ID : 6
    Format : UTF-8
    Codec ID : S_TEXT/UTF8
    Codec ID/Info : UTF-8 Plain Text
    Language : English
    Default : No
    Forced : No
    Menu
    00: 00: 00.000 : : Chapter 01
    00: 07: 58.686 : : Chapter 02
    00: 15: 33.098 : : Chapter 03
    00: 20: 09.583 : : Chapter 04
    00: 27: 17.135 : : Chapter 05
    00: 34: 29.650 : : Chapter 06
    00: 46: 10.267 : : Chapter 07
    00: 50: 32.028 : : Chapter 08
    00: 59: 01.204 : : Chapter 09
    01: 03: 12.914 : : Chapter 10
    01: 10: 51.412 : : Chapter 11
    01: 14: 35.929 : : Chapter 12
    01: 25: 31.209 : : Chapter 13
    01: 28: 49.574 : : Chapter 14
    01: 34: 29.246 : : Chapter 15
    01: 43: 31.830 : : Chapter 16

    Скриншоты для ознакомления



    Все одноименные релизы в Клубе
    Время раздачи: 24/7 (До первых пяти скачавших)

    Люди в черном: Интернэшнл/Men in Black International (2019) BDRip [H.264/1080p-LQ] [hand made 16:9]
    Рейтинг →
     (голосов: 1, оценка 5/5, голосовать можно 1 раз )

    Другие торренты по теме:

  • Люди в черном / Men in Black (1997) WEB-DL [H.265 / 2160p-LQ] скачать через торрент бесплатно
  • Люди в черном 3 / Men in Black 3 (2012) WEB-DL [H.265 / 2160p-LQ] скачать через торрент бесплатно
  • Люди в черном 2 / Men in Black II (2002)WEB-DL [H.265 / 2160p-LQ] скачать через торрент бесплатно
  • Люди в черном 3 / Men in Black III (2012) WEB-DLRip [H.264 / 2160p-LQ] скачать через торрент бесплатно
  • Люди в черном 2 / Men in Black II (2002) WEB-DLRip [H.264 / 2160p-LQ] скачать через торрент бесплатно
  • Люди в черном: Трилогия / Men in Black: Trilogy (1997, 2002, 2012) HDRip [H.264] [MP4|960х528] скачать через торрент бесплатно
  • Люди в Черном / Men in Black (1997) [MP3|320 кб / с]<OST> скачать через торрент бесплатно
  • Люди в черном / Men in Black (1997) BDRip [H.264 / 1080p-LQ]


    • Комментарии (0):

      Информация

      Информация

        Посетители, находящиеся в группе Гости, не могут оставлять комментарии в данной новости.

        ↓ Меню




        ↓ Опрос

        Вы добавили сайт в закладки?
        Да
        Нет


        Популярное