.
Авторизация | Регистрация

bitok.xyz

» » Мстители: Финал / Avengers: Endgame (2019) BDRip 3D [H.264 / 1080p-LQ] [вертикальная анаморфная стереопара] [hand made 16:9] торрент скачать бесплатно


    Мстители: Финал / Avengers: Endgame (2019) BDRip 3D [H.264 / 1080p-LQ] [вертикальная анаморфная стереопара] [hand made 16:9] торрент скачать бесплатно

    Дата: 25-08-2019, 05:00 | .torrent скачали: 2

    Мстители: Финал / Avengers: Endgame (2019) BDRip 3D [H.264 / 1080p-LQ] [вертикальная анаморфная стереопара] [hand made 16:9]Производство: США/Marvel Studios
    Жанр: Фантастика, боевик, приключения
    Режиссер: Энтони Руссо, Джо Руссо

    Актеры
    Роберт Дауни мл. Крис Эванс, Марк Руффало, Крис Хемсворт, Скарлетт Йоханссон, Джереми Реннер, Дон Чидл, Пол Радд, Чедвик Боузман, Бри Ларсон

    Описание

    Оставшиеся в живых члены команды Мстителей и их союзники должны разработать новый план, который поможет противостоять разрушительным действиям могущественного титана Таноса. После наиболее масштабной и трагической битвы в истории они не могут допустить ошибку.

    Возраст: 16+ (зрителям, достигшим 16 лет)
    Рейтинг MPAA: PG-13 (детям до 13 лет просмотр нежелателен)
    Дата мировой премьеры: 24 апреля 2019
    Дата российской премьеры: 29 апреля 2019
    Продолжительность: 03: 01: 11
    Качество видео: BDRip 3D
    Перевод: Дублированный
    Субтитры: Русские (форс., полные), украинские (форс.)
    Видео: AVC/H.264, 1920x1080, ~7 Mbps
    Аудио #1: AC3, 6 ch, 384 Kbps - русский (Дубляж - iTunes)
    Аудио #2: AC3, 6 ch, 640 Kbps - украинский (Дубляж) (Спасибо Hurtom!)
    Аудио #3: AC3, 6 ch, 640 Kbps - английский

    x264 info: frame I: 2296 Avg QP: 14.57 size: 156046
    x264 info: frame P: 67799 Avg QP: 17.46 size: 68737
    x264 info: frame B: 190545 Avg QP: 18.90 size: 23575
    Unique ID : 173558482286753205383317024309214857290 (0x829225D720D251E0B806B5D2EDA6484A)
    Complete name : D: TempNNMМстители финал.2019.FS.mkv
    Format : Matroska
    Format version : Version 4/Version 2
    File size : 11.0 GiB
    Duration : 3h 1mn
    Overall bit rate : 8 666 Kbps
    Movie name : AVNGRS_ENDGAME_2019_3DRMX.Title0
    Encoded date : UTC 2019-08-24 05: 15: 05
    Writing application : mkvmerge v9.8.0 (\'Kuglblids\') 64bit
    Video
    ID : 1
    Format : AVC
    Format/Info : Advanced Video Codec
    Format profile : High@L4.1
    Format settings, CABAC : Yes
    Format settings, ReFrames : 4 frames
    Codec ID : V_MPEG4/ISO/AVC
    Duration : 3h 1mn
    Bit rate : 7 000 Kbps
    Width : 1 920 pixels
    Height : 1 080 pixels
    Display aspect ratio : 16: 9
    Frame rate mode : Constant
    Frame rate : 23.976 fps
    Color space : YUV
    Chroma subsampling : 4: 2: 0
    Bit depth : 8 bits
    Scan type : Progressive
    Bits/(Pixel*Frame) : 0.141
    Stream size : 8.64 GiB (79%)
    Writing library : x264 core 148 r2665M a01e339
    Encoding settings : cabac=1/ref=4/deblock=1: -3: -3/analyse=0x3: 0x113/me=umh/subme=9/psy=1/psy_rd=1.05: 0.10/mixed_ref=1/me_range=24/chroma_me=1/trellis=2/8x8dct=1/cqm=0/deadzone=21, 11/fast_pskip=1/chroma_qp_offset=-3/threads=5/lookahead_threads=1/sliced_threads=0/nr=0/decimate=0/interlaced=0/bluray_compat=0/constrained_intra=0/bframes=6/b_pyramid=2/b_adapt=2/b_bias=0/direct=1/weightb=1/open_gop=0/weightp=2/keyint=230/keyint_min=23/scenecut=40/intra_refresh=0/rc_lookahead=40/rc=2pass/mbtree=1/bitrate=7000/ratetol=1.0/qcomp=0.70/qpmin=3/qpmax=69/qpstep=4/cplxblur=20.0/qblur=0.5/ip_ratio=1.40/aq=2: 1.00
    Default : Yes
    Forced : No
    Audio #1
    ID : 2
    Format : AC-3
    Format/Info : Audio Coding 3
    Mode extension : CM (complete main)
    Format settings, Endianness : Big
    Codec ID : A_AC3
    Duration : 3h 1mn
    Bit rate mode : Constant
    Bit rate : 384 Kbps
    Channel(s) : 6 channels
    Channel positions : Front: L C R, Side: L R, LFE
    Sampling rate : 48.0 KHz
    Bit depth : 16 bits
    Compression mode : Lossy
    Stream size : 498 MiB (4%)
    Language : Russian
    Default : Yes
    Forced : No
    Audio #2
    ID : 3
    Format : AC-3
    Format/Info : Audio Coding 3
    Mode extension : CM (complete main)
    Format settings, Endianness : Big
    Codec ID : A_AC3
    Duration : 3h 1mn
    Bit rate mode : Constant
    Bit rate : 640 Kbps
    Channel(s) : 6 channels
    Channel positions : Front: L C R, Side: L R, LFE
    Sampling rate : 48.0 KHz
    Bit depth : 16 bits
    Compression mode : Lossy
    Delay relative to video : 27ms
    Stream size : 829 MiB (7%)
    Language : Ukrainian
    Default : No
    Forced : No
    Audio #3
    ID : 4
    Format : AC-3
    Format/Info : Audio Coding 3
    Mode extension : CM (complete main)
    Format settings, Endianness : Big
    Codec ID : A_AC3
    Duration : 3h 1mn
    Bit rate mode : Constant
    Bit rate : 640 Kbps
    Channel(s) : 6 channels
    Channel positions : Front: L C R, Side: L R, LFE
    Sampling rate : 48.0 KHz
    Bit depth : 16 bits
    Compression mode : Lossy
    Delay relative to video : 27ms
    Stream size : 829 MiB (7%)
    Language : English
    Default : No
    Forced : No
    Text #1
    ID : 5
    Format : UTF-8
    Codec ID : S_TEXT/UTF8
    Codec ID/Info : UTF-8 Plain Text
    Title : полные
    Language : Russian
    Default : Yes
    Forced : No
    Text #2
    ID : 6
    Format : UTF-8
    Codec ID : S_TEXT/UTF8
    Codec ID/Info : UTF-8 Plain Text
    Title : форсированные
    Language : Russian
    Default : No
    Forced : No
    Text #3
    ID : 7
    Format : UTF-8
    Codec ID : S_TEXT/UTF8
    Codec ID/Info : UTF-8 Plain Text
    Title : форсированные
    Language : Ukrainian
    Default : No
    Forced : No

    Скриншоты для ознакомления



    Все одноименные релизы в Клубе Время раздачи: 24/7 (до появления первых 3-5 скачавших)


    Мстители: Финал/Avengers: Endgame (2019) BDRip 3D [H.264/1080p-LQ] [вертикальная анаморфная стереопара] [hand made 16:9]
    Рейтинг →
     (голосов: 1, оценка 4/5, голосовать можно 1 раз )

    Другие торренты по теме:

  • Мстители: Финал / Avengers: Endgame (2019) WEBRip [H.264 / 2160p] [4K] [IMAX Edition] [Тизер] [EN]
  • Мстители: Финал / Avengers: Endgame (2019) WEBRip [H.264 / 2160p] [4K] [Трейлер №2] [EN]
  • Alan Silvestri - Avengers: Endgame / Мстители: Финал (Original Motion Picture Soundtrack) (2019) [MP3|320 кб / с]<Soundtrack>
  • Alan Silvestri - Avengers: Endgame / Мстители: Финал (Original Motion Picture Soundtrack) (2019) [FLAC|Lossless|WEB-DL|tracks]<Soundtrack>
  • Мстители: Финал / Avengers: Endgame (2019) TS [H.264 / 720p-LQ] [MVO] [AD]
  • Мстители: Финал / Avengers: Endgame (2019) TC [EN / RU Sub] [Proper]
  • Мстители: Финал / Avengers: Endgame (2019) TC [Line]
  • Мстители: Финал / Avengers: Endgame (2019) TC [H.264 / 720p-LQ] [Line]


    • Комментарии (0):

      Информация

      Информация

        Посетители, находящиеся в группе Гости, не могут оставлять комментарии в данной новости.

        ↓ Меню




        ↓ Опрос

        Вы добавили сайт в закладки?
        Да
        Нет


        Популярное