ВАЖНО! Сайт скоро заблокируют! Подписывайся на наш канал в Telegram https://t.me/torrentok и получи доступ к торрентам без ограничений!
.
Авторизация | Регистрация
bitok.xyz
Торрент скачать бесплатно Другое торрент скачать Знакомство с Факерами / Meet the Fockers (2004) HDRip [H.264] [Hand Made Extended Cut] торрент скачать бесплатно


    Знакомство с Факерами / Meet the Fockers (2004) HDRip [H.264] [Hand Made Extended Cut] торрент скачать бесплатно

    Дата: 27-08-2019, 05:00 | .torrent скачали: 1

    Знакомство с Факерами / Meet the Fockers (2004) HDRip [H.264] [Hand Made Extended Cut]Производство: США/DreamWorks SKG, Everyman Pictures, Tribeca Productions, Universal Pictures
    Жанр: мелодрама, комедия
    Режиссер: Джей Роуч

    Актеры
    Роберт Де Ниро, Бен Стиллер, Дастин Хоффман, Барбра Стрейзанд, Блайт Даннер, Тери Поло, Аланна Юбак, Рэй Сантьяго, Шелли Берман, Оуэн Уилсон

    Описание

    Дав разрешение санитару Грэгу Факеру на свадьбу с их дочерью, бывший ЦэРэУшник Джек Бернс и его жена отправляются в Майами к родителям жениха. У них в голове много вопросов. Что это за семейка такая — Факеры? И что это вообще за родители, которые назвали сына Гей (Гейлард) М. Факер?

    Возраст: 12+ (зрителям, достигшим 12 лет)
    Рейтинг MPAA: PG-13 (детям до 13 лет просмотр нежелателен)
    Релиз от: MAG3131
    Продолжительность: 02: 09: 35
    Качество видео: HDRip
    Перевод: Дублированный с вставками любительского псевдо-дубляжа \'\'Dars Group\'\'
    Субтитры: Отсутствуют
    Видео: AVC/H.264, 720x384, ~2825 kbps
    Аудио: AC3, 2 ch, 192 kbpsДанная версия фильма на Blu-Ray не выходила как расширенная версия. Поэтому это Неофициальная (фанатная) версия. Добавленные сцены отличаются по качеству видео от самого фильма.
    Общее
    Уникальный идентификатор : 272262552921728906869211236523655435168 (0xCCD3DC3F4A36D4F6060CF1D35CC613A0)
    Полное имя : Meet.The.Fockers.Hdrip.HMEC.mkv
    Формат : Matroska
    Версия формата : Version 2
    Размер файла : 2, 73 Гбайт
    Продолжительность : 2 ч. 9 м.
    Общий поток : 3018 Кбит/сек
    Дата кодирования : UTC 2019-08-26 00: 44: 41
    Программа кодирования : mkvmerge v37.0.0 (\'Leave It\') 64-bit
    Библиотека кодирования : libebml v1.3.9 + libmatroska v1.5.2
    Attachments : Лог кодирования.log
    Видео
    Идентификатор : 1
    Формат : AVC
    Формат/Информация : Advanced Video Codec
    Профиль формата : High@L4.1
    Настройки формата : CABAC/12 Ref Frames
    Параметр CABAC формата : Да
    Параметр RefFrames формата : 12 кадров
    Идентификатор кодека : V_MPEG4/ISO/AVC
    Продолжительность : 2 ч. 9 м.
    Битрейт : 2825 Кбит/сек
    Ширина : 720 пикселей
    Высота : 384 пикселя
    Соотношение сторон : 1, 85: 1
    Режим частоты кадров : Постоянный
    Частота кадров : 25, 000 кадров/сек
    Цветовое пространство : YUV
    Субдискретизация насыщенности : 4: 2: 0
    Битовая глубина : 8 бит
    Тип развёртки : Прогрессивная
    Бит/(Пиксели*Кадры) : 0.409
    Размер потока : 2, 50 Гбайт (92%)
    Заголовок : Знакомство с Факерами (Расширенная версия) (Meet The Fockers) (Extended Cut)
    Библиотека кодирования : x264 core 157 r2935 545de2f
    Настройки программы : cabac=1/ref=12/deblock=1: -1: -1/analyse=0x3: 0x133/me=umh/subme=11/psy=1/psy_rd=1.00: 0.15/mixed_ref=1/me_range=64/chroma_me=1/trellis=2/8x8dct=1/cqm=0/deadzone=21, 11/fast_pskip=0/chroma_qp_offset=-3/threads=6/lookahead_threads=1/sliced_threads=0/nr=0/decimate=0/interlaced=0/bluray_compat=0/constrained_intra=0/bframes=16/b_pyramid=2/b_adapt=2/b_bias=0/direct=3/weightb=1/open_gop=0/weightp=2/keyint=250/keyint_min=25/scenecut=40/intra_refresh=0/rc_lookahead=60/rc=2pass/mbtree=0/bitrate=2825/ratetol=1.0/qcomp=0.60/qpmin=0/qpmax=69/qpstep=4/cplxblur=20.0/qblur=0.5/vbv_maxrate=50000/vbv_bufsize=62500/nal_hrd=none/filler=0/ip_ratio=1.40/pb_ratio=1.30/aq=1: 1.00
    Язык : English
    Default : Да
    Forced : Нет
    Аудио
    Идентификатор : 2
    Формат : AC-3
    Формат/Информация : Audio Coding 3
    Коммерческое название : Dolby Digital
    Идентификатор кодека : A_AC3
    Продолжительность : 2 ч. 9 м.
    Вид битрейта : Постоянный
    Битрейт : 192 Кбит/сек
    Каналы : 2 канала
    ChannelLayout : L R
    Частота : 48, 0 КГц
    Частота кадров : 31, 250 кадров/сек (1536 SPF)
    Битовая глубина : 16 бит
    Метод сжатия : С потерями
    Размер потока : 178 Мбайт (6%)
    Заголовок : Дублированный \'\'Blu-ray CEE\'\' с вставками любительского псевдо-дубляжа \'\'Dars Group\'\' (AC-3, Постоянный, 192 Кбит/сек, 2 канала, 48, 0 КГц, 16 бит)
    Язык : Russian
    ServiceKind/String : Complete Main
    Default : Да
    Forced : Нет

    Скриншоты для ознакомления



    Все одноименные релизы в Клубе
    Время раздачи: 24/7 до первых 10 скачавших, потом ухожу с раздачи

    Знакомство с Факерами / Meet the Fockers (2004) HDRip [H.264] [Hand Made Extended Cut] торрент скачать бесплатно
    Рейтинг →
     (голосов: 1, оценка 4/5, голосовать можно 1 раз )

    Другие торренты по теме:

  • Знакомство с Факерами / Meet the Fockers (2004) BDRip [H.265 / 1080p-LQ]
  • Знакомство с Факерами / Meet the Fockers (2004) BDRip [H.265 / 1080p] [10-bit] [PR]
  • Знакомство с Факерами 2 / Little Fockers (2010) BDRip [H.265 / 1080p-LQ] [10-bit] [PR]


    • Комментарии (0):

      Информация

      Информация

        Посетители, находящиеся в группе Гости, не могут оставлять комментарии в данной новости.