.
Авторизация | Регистрация

bitok.xyz

» » Годзилла 2: Король монстров / Godzilla: King of the Monsters (2019) BDRip 3D [H.264 / 1080p] [вертикальная анаморфная стереопара] [hand made 16:9] торрент скачать бесплатно


    Годзилла 2: Король монстров / Godzilla: King of the Monsters (2019) BDRip 3D [H.264 / 1080p] [вертикальная анаморфная стереопара] [hand made 16:9] торрент скачать бесплатно

    Дата: 29-08-2019, 05:00 | .torrent скачали: 0

    Годзилла 2: Король монстров / Godzilla: King of the Monsters (2019) BDRip 3D [H.264 / 1080p] [вертикальная анаморфная стереопара] [hand made 16:9]Производство: США, Япония/Warner Bros., Legendary Entertainment, Toho Company
    Жанр: Фантастика, Фэнтези, Боевик, Приключения
    Режиссер: Майкл Догерти

    Актеры
    Кайл Чандлер, Вера Фармига, Милли Бобби Браун, Кэн Ватанабэ, Цзыи Чжан, Брэдли Уитфорд, Салли Хокинс, Чарльз Дэнс, Томас Миддлдитч, Аиша Хайндс, О`Ши Джексон мл., Дэвид Стрэтэйрн, Энтони Рамос

    Описание

    История рассказывает о героических усилиях криптозоологического агентства Монарх по сдерживанию гигантских монстров. В этот раз против могучего Годзиллы выступают Мотра, Родан и ультимативный кайдзю — трёхголовый монстр Кинг Гидора. Когда эти древние суперхищники, со временем превратившиеся в полузабытые мифы, восстают снова, чтобы сойтись в схватке, человечеству остаётся отойти в сторонку и постараться не погибнуть.

    Рейтинг MPAA: PG-13 (детям до 13 лет просмотр нежелателен)
    Дата мировой премьеры: 29 мая 2019
    Дата российской премьеры: 30 мая 2019, Каро-Премьер 3D
    Продолжительность: 02: 11: 43
    Качество видео: BDRip 3D
    Перевод: дублированный (iTunes)
    Субтитры: русские (форс., полные), украинские (форс.), английские (полные)
    Видео: AVC/H.264, 1920x1080 ~10 Mbps
    Аудио #1: AC3, 6 ch, 384 Kbps - Русский
    Аудио #2: AC3, 2 ch, 192 Kbps - Украинский
    Аудио #3: AC3, 6 ch, 448 Kbps - Английский

    x264 info: frame I: 1451 Avg QP: 16.09 size: 158306
    x264 info: frame P: 54468 Avg QP: 18.15 size: 86061
    x264 info: frame B: 133537 Avg QP: 19.98 size: 37123
    Unique ID : 212709784752771790662415985208079470664 (0xA0066A15974C6FA989C1F17300BCD048)
    Complete name : D: TempNNMГодзилла.2019.1080p.FS.mkv
    Format : Matroska
    Format version : Version 4/Version 2
    File size : 10.1 GiB
    Duration : 2h 11mn
    Overall bit rate : 11.0 Mbps
    Movie name : GODZILLA2_3D_2019_RMX_BLUEBIRD.Title0
    Encoded date : UTC 2019-08-28 18: 01: 26
    Writing application : mkvmerge v9.8.0 (\'Kuglblids\') 64bit
    Writing library : libebml v1.3.4 + libmatroska v1.4.5
    Video
    ID : 1
    Format : AVC
    Format/Info : Advanced Video Codec
    Format profile : High@L4.1
    Format settings, CABAC : Yes
    Format settings, ReFrames : 4 frames
    Codec ID : V_MPEG4/ISO/AVC
    Duration : 2h 11mn
    Bit rate : 10 000 Kbps
    Width : 1 920 pixels
    Height : 1 080 pixels
    Display aspect ratio : 16: 9
    Frame rate mode : Constant
    Frame rate : 23.976 fps
    Color space : YUV
    Chroma subsampling : 4: 2: 0
    Bit depth : 8 bits
    Scan type : Progressive
    Bits/(Pixel*Frame) : 0.201
    Stream size : 9.00 GiB (89%)
    Writing library : x264 core 157 r2935 545de2f
    Encoding settings : cabac=1/ref=4/deblock=1: -3: -3/analyse=0x3: 0x113/me=umh/subme=9/psy=1/psy_rd=1.05: 0.10/mixed_ref=1/me_range=24/chroma_me=1/trellis=2/8x8dct=1/cqm=0/deadzone=21, 11/fast_pskip=0/chroma_qp_offset=-3/threads=5/lookahead_threads=1/sliced_threads=0/nr=0/decimate=0/interlaced=0/bluray_compat=0/constrained_intra=0/bframes=6/b_pyramid=2/b_adapt=2/b_bias=0/direct=1/weightb=1/open_gop=0/weightp=2/keyint=240/keyint_min=24/scenecut=40/intra_refresh=0/rc=2pass/mbtree=0/bitrate=10000/ratetol=1.0/qcomp=0.70/qpmin=3/qpmax=69/qpstep=4/cplxblur=20.0/qblur=0.5/ip_ratio=1.40/pb_ratio=1.30/aq=2: 1.00
    Default : Yes
    Forced : No
    Audio #1
    ID : 2
    Format : AC-3
    Format/Info : Audio Coding 3
    Mode extension : CM (complete main)
    Format settings, Endianness : Big
    Codec ID : A_AC3
    Duration : 2h 11mn
    Bit rate mode : Constant
    Bit rate : 384 Kbps
    Channel(s) : 6 channels
    Channel positions : Front: L C R, Side: L R, LFE
    Sampling rate : 48.0 KHz
    Bit depth : 16 bits
    Compression mode : Lossy
    Stream size : 362 MiB (3%)
    Language : Russian
    Default : Yes
    Forced : No
    Audio #2
    ID : 3
    Format : AC-3
    Format/Info : Audio Coding 3
    Format profile : Dolby Digital
    Mode extension : CM (complete main)
    Format settings, Endianness : Big
    Codec ID : A_AC3
    Duration : 2h 11mn
    Bit rate mode : Constant
    Bit rate : 192 Kbps
    Channel(s) : 2 channels
    Channel positions : Front: L R
    Sampling rate : 48.0 KHz
    Bit depth : 16 bits
    Compression mode : Lossy
    Stream size : 181 MiB (2%)
    Language : Ukrainian
    Default : No
    Forced : No
    Audio #3
    ID : 4
    Format : AC-3
    Format/Info : Audio Coding 3
    Mode extension : CM (complete main)
    Format settings, Endianness : Big
    Codec ID : A_AC3
    Duration : 2h 11mn
    Bit rate mode : Constant
    Bit rate : 448 Kbps
    Channel(s) : 6 channels
    Channel positions : Front: L C R, Side: L R, LFE
    Sampling rate : 48.0 KHz
    Bit depth : 16 bits
    Compression mode : Lossy
    Stream size : 422 MiB (4%)
    Language : English
    Default : No
    Forced : No
    Text #1
    ID : 5
    Format : UTF-8
    Codec ID : S_TEXT/UTF8
    Codec ID/Info : UTF-8 Plain Text
    Title : Форсированные вер. Ash61
    Language : Russian
    Default : Yes
    Forced : No
    Text #2
    ID : 6
    Format : UTF-8
    Codec ID : S_TEXT/UTF8
    Codec ID/Info : UTF-8 Plain Text
    Title : Полные
    Language : Russian
    Default : No
    Forced : No
    Text #3
    ID : 7
    Format : UTF-8
    Codec ID : S_TEXT/UTF8
    Codec ID/Info : UTF-8 Plain Text
    Title : Форсированные вер. Ash61
    Language : Ukrainian
    Default : No
    Forced : No
    Text #4
    ID : 8
    Format : UTF-8
    Codec ID : S_TEXT/UTF8
    Codec ID/Info : UTF-8 Plain Text
    Title : SDH
    Language : English
    Default : No
    Forced : No
    Menu
    00: 00: 00.000 : : 1
    00: 10: 53.903 : : 2
    00: 18: 06.836 : : 3
    00: 30: 27.325 : : 4
    00: 45: 18.633 : : 5
    00: 54: 11.039 : : 6
    01: 05: 41.646 : : 7
    01: 09: 31.584 : : 8
    01: 19: 31.308 : : 9
    01: 30: 06.234 : : 10
    01: 38: 36.869 : : 11
    01: 49: 58.884 : : 12
    01: 59: 28.828 : : 13

    Скриншоты для ознакомления



    Все одноименные релизы в Клубе
    Время раздачи: 24/7 (до появления первых 3-5 скачавших)


    Годзилла 2: Король монстров/Godzilla: King of the Monsters (2019) BDRip 3D [H.264/1080p] [вертикальная анаморфная стереопара] [hand made 16:9]
    Рейтинг →
     (голосов: 1, оценка 4/5, голосовать можно 1 раз )

    Другие торренты по теме:

  • Годзилла & Годзилла 2: Король монстров / Godzilla & Godzilla: King of the Monsters (2014, 2019) BDRip [H.265 / 1080p] [10-bit] [Дилогия]
  • Bear McCreary - Godzilla: King of Monsters / Годзилла 2: Король монстров (Original Motion Picture Soundtrack) (2019) Single [FLAC|Lossless|WEB-DL|tracks]<Soundtrack>
  • Bear McCreary - Godzilla: King of Monsters / Годзилла 2: Король монстров (Original Motion Picture Soundtrack) (2019) Single [MP3|320 кб / с]<Soundtrack>
  • Bear McCreary - Godzilla: King of the Monsters / Годзилла 2: Король монстров (Original Motion Picture Soundtrack) (2019) [MP3|320 кб / с]<Soundtrack>
  • Bear McCreary - Godzilla: King of the Monsters / Годзилла 2: Король монстров (Original Motion Picture Soundtrack) (2019) [FLAC|Lossless|WEB-DL|tracks]<Soundtrack>
  • Годзилла 2: Король монстров / Godzilla: King of the Monsters (2019) TS [H.264 / 720p-LQ] [AD]
  • Годзилла 2: Король монстров / Godzilla: King of the Monsters (2019) WEBRip [H.264 / 1080p-LQ] [Line, AD]
  • Годзилла 2: Король монстров / Godzilla: King of the Monsters (2019) WEBRip [UKR, EN / KOR Sub] [Line]


    • Комментарии (0):

      Информация

      Информация

        Посетители, находящиеся в группе Гости, не могут оставлять комментарии в данной новости.

        ↓ Меню




        ↓ Опрос

        Вы добавили сайт в закладки?
        Да
        Нет


        Популярное