.
Авторизация | Регистрация

bitok.xyz

» » Джон Уик 3 / John Wick: Chapter 3 - Parabellum (2019) BDRip [H.264 / 1080p-LQ] [hand made 16:9] торрент скачать бесплатно


    Джон Уик 3 / John Wick: Chapter 3 - Parabellum (2019) BDRip [H.264 / 1080p-LQ] [hand made 16:9] торрент скачать бесплатно

    Дата: 30-08-2019, 05:00 | .torrent скачали: 1

    Джон Уик 3 / John Wick: Chapter 3 - Parabellum (2019) BDRip [H.264 / 1080p-LQ] [hand made 16:9]Производство: США/Summit Entertainment, 87Eleven, Lionsgate
    Жанр: Боевик, триллер, криминал
    Режиссер: Чад Стахелски

    Актеры
    Киану Ривз, Холли Берри, Иэн МакШейн, Лоуренс Фишборн, Марк Дакаскос, Азия Кейт Диллон, Лэнс Реддик, Тобиаш Сигал, Анжелика Хьюстон, Саид Тагмауи

    Описание

    Суперкиллер Джон Уик после нарушения кодекса тайной гильдии ассасинов получает статус изгоя — экскомьюникадо. За его голову назначена цена в 14 миллионов долларов, и армия самых жестоких профессиональных убийц со всего мира открывает на него кровавую охоту.

    Возраст: 18+ (зрителям, достигшим 18 лет. запрещено для детей)
    Рейтинг MPAA: R (лицам до 17 лет обязательно присутствие взрослого)
    Дата мировой премьеры: 15 мая 2019
    Дата российской премьеры: 16 мая 2019
    Продолжительность: 02: 11: 15
    Качество видео: BDRip
    Перевод: Дублированный (iTunes)
    Субтитры: Русские (форсированные), английские (полные)
    Видео: AVC/H.264, 1920x1080, ~8 Mbps
    Аудио #1: AC3, 6 ch, 384 Kbps - русский
    Аудио #2: AC3, 6 ch, 640 Kbps - английский

    x264 info: frame I: 1461 Avg QP: 17.37 size: 198624
    x264 info: frame P: 50794 Avg QP: 19.18 size: 70102
    x264 info: frame B: 136746 Avg QP: 20.44 size: 29391
    Unique ID : 211315813215931805786948021924794953472 (0x9EF9F1FB376FA6F0840E177A8BD76F00)
    Complete name : D: TempNNMУик3.2019.FS.mkv
    Format : Matroska
    Format version : Version 4/Version 2
    File size : 8.27 GiB
    Duration : 2h 11mn
    Overall bit rate : 9 021 Kbps
    Movie name : Джон Уик 3_John Wick: Chapter 3 - Parabellum (2019)
    Encoded date : UTC 2019-08-29 07: 53: 42
    Writing application : mkvmerge v9.8.0 (\'Kuglblids\') 64bit
    Writing library : libebml v1.3.4 + libmatroska v1.4.5
    Video
    ID : 1
    Format : AVC
    Format/Info : Advanced Video Codec
    Format profile : High@L4.1
    Format settings, CABAC : Yes
    Format settings, ReFrames : 4 frames
    Codec ID : V_MPEG4/ISO/AVC
    Duration : 2h 11mn
    Bit rate : 8 000 Kbps
    Width : 1 920 pixels
    Height : 1 080 pixels
    Display aspect ratio : 16: 9
    Frame rate mode : Constant
    Frame rate : 24.000 fps
    Color space : YUV
    Chroma subsampling : 4: 2: 0
    Bit depth : 8 bits
    Scan type : Progressive
    Bits/(Pixel*Frame) : 0.161
    Stream size : 7.17 GiB (87%)
    Writing library : x264 core 157 r2935 545de2f
    Encoding settings : cabac=1/ref=4/deblock=1: -3: -3/analyse=0x3: 0x113/me=umh/subme=10/psy=1/psy_rd=1.05: 0.10/mixed_ref=1/me_range=24/chroma_me=1/trellis=2/8x8dct=1/cqm=0/deadzone=21, 11/fast_pskip=0/chroma_qp_offset=-3/threads=5/lookahead_threads=1/sliced_threads=0/nr=0/decimate=0/interlaced=0/bluray_compat=0/constrained_intra=0/bframes=7/b_pyramid=2/b_adapt=2/b_bias=0/direct=1/weightb=1/open_gop=0/weightp=2/keyint=240/keyint_min=24/scenecut=40/intra_refresh=0/rc=2pass/mbtree=0/bitrate=8000/ratetol=1.0/qcomp=0.70/qpmin=3/qpmax=69/qpstep=4/cplxblur=20.0/qblur=0.5/ip_ratio=1.40/pb_ratio=1.30/aq=2: 1.00
    Default : Yes
    Forced : No
    Audio #1
    ID : 2
    Format : AC-3
    Format/Info : Audio Coding 3
    Mode extension : CM (complete main)
    Format settings, Endianness : Big
    Codec ID : A_AC3
    Duration : 2h 11mn
    Bit rate mode : Constant
    Bit rate : 384 Kbps
    Channel(s) : 6 channels
    Channel positions : Front: L C R, Side: L R, LFE
    Sampling rate : 48.0 KHz
    Bit depth : 16 bits
    Compression mode : Lossy
    Stream size : 360 MiB (4%)
    Language : Russian
    Default : Yes
    Forced : No
    Audio #2
    ID : 3
    Format : AC-3
    Format/Info : Audio Coding 3
    Mode extension : CM (complete main)
    Format settings, Endianness : Big
    Codec ID : A_AC3
    Duration : 2h 11mn
    Bit rate mode : Constant
    Bit rate : 640 Kbps
    Channel(s) : 6 channels
    Channel positions : Front: L C R, Side: L R, LFE
    Sampling rate : 48.0 KHz
    Bit depth : 16 bits
    Compression mode : Lossy
    Stream size : 601 MiB (7%)
    Language : English
    Default : No
    Forced : No
    Text #1
    ID : 4
    Format : UTF-8
    Codec ID : S_TEXT/UTF8
    Codec ID/Info : UTF-8 Plain Text
    Title : Форс.
    Language : Russian
    Default : Yes
    Forced : No
    Text #2
    ID : 5
    Format : UTF-8
    Codec ID : S_TEXT/UTF8
    Codec ID/Info : UTF-8 Plain Text
    Title : Full
    Language : English
    Default : No
    Forced : No
    Menu
    00: 00: 00.000 : : Chapter 1
    00: 05: 32.374 : : Chapter 2
    00: 20: 17.591 : : Chapter 3
    00: 31: 45.570 : : Chapter 4
    00: 41: 08.257 : : Chapter 5
    00: 50: 46.669 : : Chapter 6
    01: 03: 15.667 : : Chapter 7
    01: 14: 46.857 : : Chapter 8
    01: 23: 05.105 : : Chapter 9
    01: 28: 51.243 : : Chapter 10
    01: 49: 32.316 : : Chapter 11
    02: 02: 16.996 : : Chapter 12

    Скриншоты для ознакомления



    Все одноименные релизы в Клубе Время раздачи: 24/7 (до появления первых 3-5 скачавших)


    Джон Уик 3/John Wick: Chapter 3 - Parabellum (2019) BDRip [H.264/1080p-LQ] [hand made 16:9]
    Рейтинг →
     (голосов: 1, оценка 5/5, голосовать можно 1 раз )

    Другие торренты по теме:

  • Джон Уик / John Wick (2014) WEBRip [1080p] [Трейлер]
  • Представь себе: Джон Леннон / Imagine - John Lennon (1988) HDTV [720p] скачать через торрент бесплатно
  • Джон Уик / John Wick (2014) CamRip [H.264] [EN]
  • Джон Уик / John Wick (2014) CamRip скачать через торрент бесплатно
  • Джон Кью / John Q. (2002) BDRip [576p] iPad
  • Tyler Bates & Joel J Richard - Джон Уик / John Wick (Original Motion Picture Soundtrack) (2014) [MP3|320 кб / с]<Soundtrack> скачать через торрент бесплатно
  • Джон Уик / John Wick (2014) CamRip
  • Джон Уик / John Wick (2014) WEB-DLRip [звук с TS] скачать через торрент бесплатно


    • Комментарии (0):

      Информация

      Информация

        Посетители, находящиеся в группе Гости, не могут оставлять комментарии в данной новости.

        ↓ Меню




        ↓ Опрос

        Вы добавили сайт в закладки?
        Да
        Нет


        Популярное