.
Авторизация | Регистрация

bitok.xyz

» » Аладдин / Aladdin (2019) BDRip [H.264 / 1080p-LQ] [hand made 16:9] торрент скачать бесплатно


    Аладдин / Aladdin (2019) BDRip [H.264 / 1080p-LQ] [hand made 16:9] торрент скачать бесплатно

    Дата: 31-08-2019, 05:00 | .torrent скачали: 1

    Производство: США/Walt Disney Pictures, Lin Pictures, Rideback
    Жанр: Мюзикл, фэнтези, мелодрама, комедия, приключения, семейный
    Режиссер: Гай Ричи

    Актеры
    Мена Массуд, Наоми Скотт, Уилл Смит, Билли Магнуссен, Алан Тьюдик, Назим Педрад, Марван Кензари, Нуман Аджар, Фрэнк Уэлкер, Навид Негабан

    Описание

    Молодой воришка по имени Аладдин хочет стать принцем, чтобы жениться на принцессе Жасмин. Тем временем визирь Аграбы Джафар намеревается захватить власть над Аграбой, а для этого он стремится заполучить волшебную лампу, хранящуюся в пещере чудес, доступ к которой разрешен лишь тому, кого называют алмаз неограненный, и этим человеком является не кто иной, как сам Аладдин.

    Возраст: 6+ (зрителям, достигшим 6 лет)
    Рейтинг MPAA: PG (рекомендуется присутствие родителей)
    Дата мировой премьеры: 8 мая 2019
    Дата российской премьеры: 23 мая 2019
    Продолжительность: 02: 07: 58
    Качество видео: BDRip
    Перевод: Дублированный (iTunes)
    Субтитры: Русские (форс., полные), английские (полные)
    Видео: AVC/H.264, 1920x1080, ~7 Mbps
    Аудио #1: AC3, 6 ch, 384 Kbps - Русский
    Аудио #2: AC3, 6 ch, 640 Kbps - Английский
    x264 info: frame I: 2125 Avg QP: 17.89 size: 196213
    x264 info: frame P: 47247 Avg QP: 18.38 size: 70760
    x264 info: frame B: 134738 Avg QP: 20.19 size: 21949
    Unique ID : 185150623771104666197179162360020800407 (0x8B4AB68AB9958650858CEFB2765D1397)
    Complete name : D: TempNNMАладдин.2019.FS.mkv
    Format : Matroska
    Format version : Version 4/Version 2
    File size : 7.17 GiB
    Duration : 2h 7mn
    Overall bit rate : 8 025 Kbps
    Movie name : Аладдин_Aladdin (2019)
    Encoded date : UTC 2019-08-30 14: 41: 53
    Writing application : mkvmerge v9.8.0 (\'Kuglblids\') 64bit
    Writing library : libebml v1.3.4 + libmatroska v1.4.5
    Video
    ID : 1
    Format : AVC
    Format/Info : Advanced Video Codec
    Format profile : High@L4.1
    Format settings, CABAC : Yes
    Format settings, ReFrames : 4 frames
    Codec ID : V_MPEG4/ISO/AVC
    Duration : 2h 7mn
    Bit rate : 7 000 Kbps
    Width : 1 920 pixels
    Height : 1 080 pixels
    Display aspect ratio : 16: 9
    Frame rate mode : Constant
    Frame rate : 23.976 fps
    Color space : YUV
    Chroma subsampling : 4: 2: 0
    Bit depth : 8 bits
    Scan type : Progressive
    Bits/(Pixel*Frame) : 0.141
    Stream size : 6.12 GiB (85%)
    Writing library : x264 core 157 r2935 545de2f
    Encoding settings : cabac=1/ref=4/deblock=1: -3: -3/analyse=0x3: 0x113/me=umh/subme=9/psy=1/psy_rd=1.05: 0.10/mixed_ref=1/me_range=24/chroma_me=1/trellis=2/8x8dct=1/cqm=0/deadzone=21, 11/fast_pskip=0/chroma_qp_offset=-3/threads=5/lookahead_threads=1/sliced_threads=0/nr=0/decimate=0/interlaced=0/bluray_compat=0/constrained_intra=0/bframes=6/b_pyramid=2/b_adapt=2/b_bias=0/direct=1/weightb=1/open_gop=0/weightp=2/keyint=240/keyint_min=24/scenecut=40/intra_refresh=0/rc=2pass/mbtree=0/bitrate=7000/ratetol=1.0/qcomp=0.70/qpmin=3/qpmax=69/qpstep=4/cplxblur=20.0/qblur=0.5/ip_ratio=1.40/pb_ratio=1.30/aq=2: 1.00
    Default : Yes
    Forced : No
    Audio #1
    ID : 2
    Format : AC-3
    Format/Info : Audio Coding 3
    Mode extension : CM (complete main)
    Format settings, Endianness : Big
    Codec ID : A_AC3
    Duration : 2h 7mn
    Bit rate mode : Constant
    Bit rate : 384 Kbps
    Channel(s) : 6 channels
    Channel positions : Front: L C R, Side: L R, LFE
    Sampling rate : 48.0 KHz
    Bit depth : 16 bits
    Compression mode : Lossy
    Stream size : 352 MiB (5%)
    Language : Russian
    Default : Yes
    Forced : No
    Audio #2
    ID : 3
    Format : AC-3
    Format/Info : Audio Coding 3
    Mode extension : CM (complete main)
    Format settings, Endianness : Big
    Codec ID : A_AC3
    Duration : 2h 7mn
    Bit rate mode : Constant
    Bit rate : 640 Kbps
    Channel(s) : 6 channels
    Channel positions : Front: L C R, Side: L R, LFE
    Sampling rate : 48.0 KHz
    Bit depth : 16 bits
    Compression mode : Lossy
    Stream size : 586 MiB (8%)
    Language : English
    Default : No
    Forced : No
    Text #1
    ID : 4
    Format : UTF-8
    Codec ID : S_TEXT/UTF8
    Codec ID/Info : UTF-8 Plain Text
    Title : Форс.
    Language : Russian
    Default : Yes
    Forced : No
    Text #2
    ID : 5
    Format : UTF-8
    Codec ID : S_TEXT/UTF8
    Codec ID/Info : UTF-8 Plain Text
    Title : Полные
    Language : Russian
    Default : No
    Forced : No
    Text #3
    ID : 6
    Format : UTF-8
    Codec ID : S_TEXT/UTF8
    Codec ID/Info : UTF-8 Plain Text
    Title : full
    Language : English
    Default : No
    Forced : No
    Menu
    00: 00: 00.000 : en: Chapter 01
    00: 04: 49.372 : en: Chapter 02
    00: 13: 04.659 : en: Chapter 03
    00: 18: 55.760 : en: Chapter 04
    00: 26: 18.410 : en: Chapter 05
    00: 30: 26.324 : en: Chapter 06
    00: 39: 51.889 : en: Chapter 07
    00: 54: 50.162 : en: Chapter 08
    01: 02: 18.652 : en: Chapter 09
    01: 09: 19.489 : en: Chapter 11
    01: 21: 53.033 : en: Chapter 12
    01: 33: 51.417 : en: Chapter 13
    01: 38: 48.381 : en: Chapter 14
    01: 45: 19.396 : en: Chapter 15
    01: 53: 07.030 : en: Chapter 16
    01: 59: 38.463 : en: Chapter 17

    Скриншоты для ознакомления



    Все одноименные релизы в Клубе
    Время раздачи: 24/7 (до появления первых 3-5 скачавших)


    Аладдин/Aladdin (2019) BDRip [H.264/1080p-LQ] [hand made 16:9]
    Рейтинг →
     (голосов: 1, оценка 3/5, голосовать можно 1 раз )

    Другие торренты по теме:

  • Аладдин / Aladdin (1992) BDRemux [H.264 / 1080p] скачать через торрент бесплатно
  • Аладдин / Aladdin (1992) HDRip [H.264] [MP4|960х512]
  • Аладдин / Aladdin (1992) BDRip [H.265 / 1080p-LQ]
  • Аладдин / Aladdin (1992) BDRip [H.264 / 1080p]
  • Аладдин / Aladdin (1994-1995) DVB (Сезон 1-2, серий 86)
  • Аладдин / Aladdin (2019) TS [H.264 / 720p-LQ] [AD]
  • Аладдин / Aladdin (2019) WEB-DLRip [H.264 / 720p-LQ] [Звук с TS] [AD]
  • Аладдин / Aladdin (2019) WEB-DLRip [UKR, EN / ENG Sub] [Line]


    • Комментарии (0):

      Информация

      Информация

        Посетители, находящиеся в группе Гости, не могут оставлять комментарии в данной новости.

        ↓ Меню




        ↓ Опрос

        Вы добавили сайт в закладки?
        Да
        Нет


        Популярное